<?xml version="1.0" encoding="UTF-8" standalone="no"?>
<!-- Creator: CorelDRAW 2018 (64-Bit OEM Version) -->

<svg
   xml:space="preserve"
   width="8.5in"
   height="11in"
   version="1.1"
   style="shape-rendering:geometricPrecision; text-rendering:geometricPrecision; image-rendering:optimizeQuality; fill-rule:evenodd; clip-rule:evenodd"
   viewBox="0 0 8500 11000"
   id="svg4599"
   sodipodi:docname="Support Squad breast cancer 10ss CRICUT.svg"
   inkscape:version="1.1.1 (3bf5ae0d25, 2021-09-20)"
   xmlns:inkscape="http://www.inkscape.org/namespaces/inkscape"
   xmlns:sodipodi="http://sodipodi.sourceforge.net/DTD/sodipodi-0.dtd"
   xmlns="http://www.w3.org/2000/svg"
   xmlns:svg="http://www.w3.org/2000/svg"><sodipodi:namedview
   id="namedview4601"
   pagecolor="#ffffff"
   bordercolor="#666666"
   borderopacity="1.0"
   inkscape:pageshadow="2"
   inkscape:pageopacity="0.0"
   inkscape:pagecheckerboard="0"
   inkscape:document-units="in"
   showgrid="false"
   inkscape:zoom="0.58456839"
   inkscape:cx="-859.60857"
   inkscape:cy="869.87256"
   inkscape:window-width="3440"
   inkscape:window-height="1361"
   inkscape:window-x="-9"
   inkscape:window-y="-9"
   inkscape:window-maximized="1"
   inkscape:current-layer="Layer_x0020_1" />
 <defs
   id="defs457">
  <font
   id="FontID0"
   horiz-adv-x="667"
   font-variant="normal"
   style="fill-rule:nonzero"
   font-style="normal"
   font-weight="400">
	<font-face
   font-family="Arial"
   id="font-face2">
		<font-face-src>
			<font-face-name
   name="Arial" />
		</font-face-src>
	</font-face>
   <missing-glyph
   id="missing-glyph6"><path
     d="M0 0z"
     id="path4" /></missing-glyph>
   <glyph
   unicode=" "
   horiz-adv-x="277"
   d=""
   id="glyph8" />
   <glyph
   unicode="!"
   horiz-adv-x="277"
   d="M113.003 178l-27.0004 379.332 0 158.668 108.994 0 0 -158.668 -24.9998 -379.332 -56.9937 0zm-23.0073 -178l0 99.9992 101.008 0 0 -99.9992 -101.008 0z"
   id="glyph10" />
   <glyph
   unicode="&quot;"
   horiz-adv-x="354"
   d="M70.3312 463l-24.3329 136.002 0 116.996 99.9992 0 0 -116.996 -21.9988 -136.002 -53.6674 0zm161.498 0l-23.8287 136.002 0 116.996 99.9992 0 0 -116.996 -23.5034 -136.002 -52.6671 0z"
   id="glyph12" />
   <glyph
   unicode="#"
   horiz-adv-x="556"
   d="M49.9996 -12.0038l42.5013 208.001 -82.4977 0 0 73.0069 97.3317 0 36.1659 176.999 -133.498 0 0 72.9988 148.332 0 42.6639 209.001 73.3322 0 -42.6639 -209.001 152.504 0 42.6639 209.001 73.1614 0 -42.6639 -209.001 84.6691 0 0 -72.9988 -99.5031 0 -36.1659 -176.999 135.669 0 0 -73.0069 -150.503 0 -42.5013 -208.001 -73.3322 0 42.5013 208.001 -152.496 0 -42.5013 -208.001 -73.1695 0zm130.497 281.008l152.504 0 36.1659 176.999 -152.496 0 -36.1741 -176.999z"
   id="glyph14" />
   <glyph
   unicode="$"
   horiz-adv-x="556"
   d="M248.998 -103l0 88.0035c-43.835,5.49768 -79.4968,15.3301 -107.001,29.4972 -27.4965,14.1671 -51.1626,37.1663 -71.1608,68.664 -19.9982,31.6686 -31.5059,70.1686 -34.8322,115.833l87.9954 17.0054c6.83143,-47.5029 18.8352,-82.335 36.1659,-104.505 24.6664,-31.3351 54.3343,-48.8285 88.833,-52.4963l0 276.161c-36.1659,9.33629 -72.9988,24.6664 -110.661,45.8357 -28.0007,15.5008 -49.5035,37.1663 -64.6709,64.8336 -15.1674,27.8381 -22.6657,59.1651 -22.6657,94.3307 0,62.4995 22.1696,113.174 66.33,152.008 29.5053,25.992 73.503,41.9971 131.668,47.8282l0 41.9971 52.0002 0 0 -41.9971c50.8373,-4.8308 91.1671,-19.9982 121.006,-45.1688 38.1666,-31.9939 61.1657,-75.9997 68.9975,-131.83l-90.0041 -13.9963c-5.16424,34.8322 -15.9969,61.6618 -32.4981,80.1636 -16.3304,18.6645 -38.8335,30.8309 -67.5011,36.8328l0 -253.332c44.1685,-11.3369 73.3322,-20.169 87.6701,-26.3336 27.3339,-12.0038 49.4954,-26.667 66.6634,-43.9977 17.3388,-17.168 30.5056,-37.6705 39.8338,-61.4992 9.16551,-23.6742 13.8337,-49.5035 13.8337,-77.1708 0,-60.8323 -19.3313,-111.499 -58.0021,-152.333 -38.6627,-40.6633 -88.6623,-62.3368 -149.999,-65.3297l0 -89.0038 -52.0002 0zm0 770c-33.9945,-5.16424 -60.9949,-18.8352 -80.4971,-41.1675 -19.6648,-22.1696 -29.4972,-48.3324 -29.4972,-78.6672 0,-30.0014 8.32784,-55.1638 24.9998,-75.3328 16.6638,-20.169 44.998,-35.4991 84.9944,-45.8357l0 241.003zm52.0002 -607.998c34.1653,4.16392 62.3368,18.9979 84.6691,44.4938 22.1696,25.3332 33.3358,56.8392 33.3358,94.1681 0,32.002 -7.83988,57.506 -23.666,77 -15.8343,19.3395 -47.3402,35.003 -94.3389,47.1694l0 -262.831z"
   id="glyph16" />
   <glyph
   unicode="%"
   horiz-adv-x="889"
   d="M58.0021 544.164c0,50.9999 12.8333,94.5015 38.6627,130.171 25.8375,35.8325 63.1664,53.6674 112.166,53.6674 45.0061,0 82.335,-16.0051 111.832,-48.0071 29.5053,-31.9939 44.3393,-79.1633 44.3393,-141.167 0,-60.4989 -15.0048,-107.164 -44.8354,-139.833 -29.8306,-32.6608 -66.6634,-48.9993 -110.336,-48.9993 -43.4935,0 -79.6675,16.1677 -108.498,48.3324 -28.8303,32.1728 -43.3308,80.8386 -43.3308,145.835zm153.333 122.836c-21.8362,0 -40.0046,-9.33629 -54.5051,-28.1634 -14.5005,-18.8352 -21.8281,-53.334 -21.8281,-103.504 0,-45.6649 7.32753,-77.8296 21.9988,-96.3314 14.6632,-18.6645 32.8315,-28.0007 54.3343,-28.0007 22.1615,0 40.5006,9.33629 55.0012,28.1634 14.5005,18.8352 21.6654,53.1713 21.6654,103 0,46.0065 -7.33566,78.3338 -21.9988,96.8356 -14.6713,18.6645 -32.8397,28.0007 -54.6677,28.0007zm0.496092 -693l390.506 754.003 71.665 0 -389.506 -754.003 -72.6653 0zm308.171 194.167c0,51.3333 12.8333,94.8349 38.6627,130.497 25.6667,35.4991 63.1664,53.334 112.336,53.334 44.998,0 82.335,-15.9969 111.832,-47.999 29.4972,-32.002 44.1685,-79.1633 44.1685,-141.167 0,-60.4989 -14.834,-107.164 -44.6727,-139.833 -29.8306,-32.6689 -66.8261,-48.9993 -110.832,-48.9993 -43.3308,0 -79.3341,16.1677 -108.164,48.5032 -28.8303,32.3273 -43.3308,80.9932 -43.3308,145.664zm153.496 122.836c-22.1615,0 -40.3299,-9.33629 -54.8304,-28.1715 -14.5005,-18.8352 -21.6654,-53.334 -21.6654,-103.496 0,-45.3314 7.32753,-77.3335 21.9988,-96.1687 14.5005,-18.8352 32.4981,-28.1634 54.0009,-28.1634 22.4949,0 40.8341,9.32816 55.3346,28.1634 14.5005,18.8352 21.6654,53.1632 21.6654,103 0,45.9983 -7.33566,78.3338 -21.9988,96.8356 -14.5005,18.6645 -32.6689,28.0007 -54.5051,28.0007z"
   id="glyph18" />
   <glyph
   unicode="&amp;"
   horiz-adv-x="667"
   d="M475.663 85.0026c-28.9929,-32.002 -60.6615,-56.0015 -94.8268,-72.0066 -34.1734,-15.9969 -71.1689,-23.9995 -111.003,-23.9995 -73.3322,0 -131.497,24.6664 -174.502,74.0072 -34.8322,40.3299 -52.3337,85.1652 -52.3337,134.831 0,44.1685 14.1671,84.0022 42.6721,119.501 28.4968,35.6617 71.1608,66.8342 127.666,93.8265 -32.5062,37.0036 -54.1716,67.1676 -65.0044,90.3376 -10.8327,22.9992 -16.3304,45.3314 -16.3304,66.8342 0,42.9974 16.8346,80.3344 50.6665,111.995 33.6692,31.8394 76.1624,47.6737 127.496,47.6737 48.8366,0 89.0038,-15.0048 120.168,-45.0061 31.1725,-29.9932 46.6652,-66.1673 46.6652,-108.164 0,-68.168 -45.3314,-126.495 -136.165,-174.665l129.667 -162.669c14.834,28.6676 26.3336,61.8326 34.4987,99.6657l91.0045 -19.6648c-15.6716,-62.3287 -36.8328,-113.329 -63.6706,-153.162 32.8315,-43.5016 70.1686,-80.001 111.67,-109.669l-59.0024 -69.6644c-35.3283,22.4949 -71.665,55.9934 -109.335,99.9992zm-180 371.833c38.3374,22.6657 63.0037,42.3305 74.3406,59.3278 11.3288,17.0054 16.9973,35.8325 16.9973,56.5057 0,24.4956 -7.83175,44.4938 -23.3326,59.9946 -15.5008,15.5008 -35.003,23.3326 -58.1648,23.3326 -23.8368,0 -43.835,-7.66097 -59.6693,-22.9992 -15.8343,-15.3301 -23.8368,-34.1653 -23.8368,-56.4976 0,-11.0035 2.8383,-22.8365 8.66942,-35.003 5.66846,-12.3291 14.1671,-25.3332 25.6667,-38.9961l39.3295 -45.6649zm124.007 -303.169l-160.335 200.169c-47.6655,-28.1715 -79.8383,-54.3343 -96.3314,-78.5046 -16.672,-24.1621 -24.9998,-47.999 -24.9998,-71.665 0,-28.8303 11.4996,-58.8317 34.6614,-89.996 22.9992,-31.1725 55.6681,-46.6733 97.8359,-46.6733 26.3336,0 53.6674,8.00254 81.6682,24.1703 28.1634,16.1677 50.6665,37.0036 67.5011,62.4995z"
   id="glyph20" />
   <glyph
   unicode="'"
   horiz-adv-x="191"
   d="M67.5011 463l-22.5031 133.498 0 119.501 99.9992 0 0 -119.501 -23.4953 -133.498 -54.0009 0z"
   id="glyph22" />
   <glyph
   unicode="("
   horiz-adv-x="332"
   d="M234.001 -210.002c-48.3324,61.1657 -89.3373,132.668 -122.836,214.67 -33.4984,82.0016 -50.1622,166.996 -50.1622,254.829 0,77.5042 12.4999,151.666 37.4997,222.501 29.3345,82.335 74.4952,164.337 135.498,246.005l62.9956 0c-39.3295,-67.6719 -65.5004,-116.004 -78.163,-145.005 -19.8356,-44.8272 -35.4991,-91.6632 -46.836,-140.5 -13.9963,-60.8323 -20.9985,-121.998 -20.9985,-183.497 0,-156.497 48.6658,-312.831 145.998,-469.002l-62.9956 0z"
   id="glyph24" />
   <glyph
   unicode=")"
   horiz-adv-x="332"
   d="M123.999 -210.002l-62.9956 0c97.3317,156.171 145.998,312.506 145.998,469.002 0,61.1657 -7.00222,121.835 -20.9985,182.001 -11.0035,48.8285 -26.5043,95.6645 -46.3318,140.662 -12.6707,29.1719 -39.0042,78.0003 -78.6672,146.339l62.9956 0c61.0031,-81.6682 106.172,-163.67 135.498,-246.005 24.9998,-70.8355 37.4997,-144.997 37.4997,-222.501 0,-87.8327 -16.8265,-172.827 -50.4957,-254.829 -33.4984,-82.0016 -74.3325,-153.504 -122.502,-214.67z"
   id="glyph26" />
   <glyph
   unicode="*"
   horiz-adv-x="389"
   d="M31.0017 584.998l22.3323 68.9975c51.6668,-18.1602 88.9957,-33.8319 112.499,-47.1613 -6.16456,58.669 -9.49895,99.1615 -9.83239,121.169l70.9981 0c-1.00032,-32.1728 -4.66815,-72.34 -11.3288,-120.672 33.4984,16.8346 71.8277,32.5062 114.996,46.6652l22.3323 -68.9975c-41.1675,-13.6629 -81.4974,-22.8284 -121.169,-27.3339 19.8356,-17.168 47.6737,-47.999 83.6688,-92.1674l-58.3356 -41.501c-18.8271,25.6667 -41.1594,60.6696 -66.8261,104.838 -24.1703,-45.8357 -45.3396,-80.8305 -63.4998,-104.838l-57.3353 41.501c37.4997,46.5025 64.5001,77.1708 80.6679,92.1674 -41.8344,8.16519 -81.5055,17.3388 -119.168,27.3339z"
   id="glyph28" />
   <glyph
   unicode="+"
   horiz-adv-x="583"
   d="M250.998 115.996l0 196.005 -194.997 0 0 82.0016 194.997 0 0 194.997 83.0019 0 0 -194.997 194.997 0 0 -82.0016 -194.997 0 0 -196.005 -83.0019 0z"
   id="glyph30" />
   <glyph
   unicode=","
   horiz-adv-x="277"
   d="M89.0038 0l0 99.9992 99.9992 0 0 -99.9992c0,-36.8328 -6.50613,-66.6634 -19.6729,-89.3373 -12.996,-22.6657 -33.8319,-40.3299 -62.3287,-52.659l-23.9995 37.9958c18.6645,8.16519 32.3355,20.169 40.9967,35.8325 8.83207,15.8343 13.8337,38.5 14.834,68.168l-49.8288 0z"
   id="glyph32" />
   <glyph
   unicode="-"
   horiz-adv-x="332"
   d="M31.0017 215.003l0 87.9954 271.997 0 0 -87.9954 -271.997 0z"
   id="glyph34" />
   <glyph
   unicode="."
   horiz-adv-x="277"
   d="M90.9963 0l0 99.9992 100.007 0 0 -99.9992 -100.007 0z"
   id="glyph36" />
   <glyph
   unicode="/"
   horiz-adv-x="277"
   d="M0 -12.0038l208.001 740.007 70.8355 0 -208.001 -740.007 -70.8355 0z"
   id="glyph38" />
   <glyph
   unicode="0"
   horiz-adv-x="556"
   d="M41.9971 353.332c0,84.4983 8.66942,152.837 26.0001,204.504 17.5015,51.8294 43.3389,91.6632 77.6669,119.501 34.1653,27.83 77.3335,41.6636 129.334,41.6636 38.3374,0 71.9984,-7.6691 101.17,-23.1699 29.0011,-15.5008 53.0005,-37.8331 71.665,-66.9969 18.6645,-29.0011 33.3358,-64.5001 43.9977,-106.335 10.8327,-41.8344 16.1677,-98.332 16.1677,-169.167 0,-84.0022 -8.66128,-151.999 -25.8293,-203.666 -17.168,-51.8294 -43.0055,-91.6632 -77.3335,-119.664 -34.1653,-28.0007 -77.5042,-42.0052 -129.838,-42.0052 -68.8348,0 -122.998,24.5037 -162.328,73.6738 -47.1694,59.9946 -70.6728,157.164 -70.6728,291.662zm90.0041 -0.333439c0,-117.834 13.6629,-196.168 41.1675,-234.831 27.4965,-38.8335 61.4992,-58.1648 101.829,-58.1648 40.338,0 74.3325,19.494 101.837,58.3274 27.4965,39.0042 41.1675,117.167 41.1675,234.668 0,117.834 -13.671,196.168 -41.1675,234.839 -27.3339,38.8335 -61.67,58.1648 -102.837,58.1648 -40.3299,0 -72.6653,-17.168 -96.8274,-51.3333 -30.1722,-43.5016 -45.1688,-124.169 -45.1688,-241.67z"
   id="glyph40" />
   <glyph
   unicode="1"
   horiz-adv-x="556"
   d="M371.996 0l-87.9954 0 0 560.332c-21.1693,-20.3316 -48.9993,-40.5006 -83.3354,-60.6615 -34.328,-20.169 -65.3297,-35.3364 -92.6635,-45.3396l0 85.0026c49.1619,22.9992 92.1674,50.9999 129,84.0022 36.8328,32.8315 62.9956,64.6628 78.3338,95.6645l56.6602 0 0 -719z"
   id="glyph42" />
   <glyph
   unicode="2"
   horiz-adv-x="556"
   d="M502.997 84.0022l0 -84.0022 -473.996 0c-0.666878,21.1693 2.83017,41.501 10.3285,61.1657 12.1665,32.1647 31.6686,64.004 58.5064,95.1684 26.8296,31.1644 65.167,67.1676 114.996,108.002 77.5042,63.8332 130.171,114.329 157.668,151.666 27.6673,37.3289 41.501,72.6653 41.501,106.001 0,34.8322 -12.4999,64.1667 -37.4997,88.1662 -24.9998,23.8287 -57.6687,35.8325 -97.8359,35.8325 -42.5013,0 -76.4958,-12.6707 -102,-38.0039 -25.4959,-25.1624 -38.3292,-60.1654 -38.6627,-105.001l-90.0041 9.00285c6.16456,67.3303 29.5053,118.664 69.8352,154 40.5006,35.3364 94.6642,53.0005 162.832,53.0005 68.664,0 123.169,-18.9979 163.166,-57.1645 40.1672,-38.1666 60.1654,-85.4987 60.1654,-141.834 0,-28.6676 -5.83112,-56.8392 -17.6641,-84.4983 -11.6622,-27.8381 -31.1644,-57.0018 -58.3356,-87.6701 -27.3339,-30.4975 -72.4945,-72.6653 -135.498,-125.999 -52.8298,-44.3311 -86.8324,-74.3325 -101.829,-90.1668 -15.0048,-15.8343 -27.3339,-31.6686 -37.1663,-47.6655l351.494 0z"
   id="glyph44" />
   <glyph
   unicode="3"
   horiz-adv-x="556"
   d="M41.9971 190.003l88.0035 11.9957c10.1658,-49.9996 27.1631,-86.0029 51.3333,-108.002 24.1621,-21.9988 53.8301,-32.9942 88.9957,-32.9942 41.6717,0 76.8374,14.3297 105.172,42.9974 28.3342,28.6676 42.5013,64.1667 42.5013,106.497 0,40.338 -13.1668,73.6656 -39.6711,99.9992 -26.3336,26.1709 -59.832,39.3377 -100.666,39.3377 -16.6638,0 -37.3289,-3.33439 -62.1661,-9.83239l9.83239 77c5.83112,-0.666878 10.67,-1.00032 14.1671,-1.00032 37.6705,0 71.3316,9.83239 101.504,29.3345 30.0014,19.494 44.998,49.4954 44.998,89.996 0,32.1647 -11.0035,58.8317 -32.8315,80.001 -21.8362,21.1693 -49.9996,31.6686 -84.4983,31.6686 -34.3361,0 -62.8411,-10.8327 -85.6694,-32.4981 -22.8365,-21.6735 -37.4997,-54.1716 -43.9977,-97.5025l-88.0035 15.9969c10.8327,59.0024 35.1656,104.838 73.3322,137.336 38.0039,32.4981 85.4987,48.6658 142.167,48.6658 39.0042,0 74.9994,-8.33598 107.831,-25.1706 33.0023,-16.6638 58.1729,-39.5003 75.5036,-68.3306 17.5015,-29.0011 26.1628,-59.6693 26.1628,-92.1674 0,-30.8309 -8.32784,-58.8317 -24.829,-84.1649 -16.6638,-25.3332 -41.3302,-45.5022 -73.8364,-60.4989 42.3386,-9.66973 75.1702,-30.0014 98.6654,-60.8323 23.3407,-30.6683 35.003,-69.3391 35.003,-115.5 0,-62.4995 -22.8365,-115.671 -68.3306,-159.172 -45.6649,-43.4935 -103.334,-65.167 -173.006,-65.167 -62.8329,0 -114.996,18.8352 -156.497,56.3349 -41.6636,37.4997 -65.3297,86.0029 -71.1689,145.672z"
   id="glyph46" />
   <glyph
   unicode="4"
   horiz-adv-x="556"
   d="M322.997 0l0 170.997 -310.993 0 0 81.0013 326.998 464.001 71.9984 0 0 -464.001 96.9982 0 0 -81.0013 -96.9982 0 0 -170.997 -88.0035 0zm0 251.999l0 322.167 -224.494 -322.167 224.494 0z"
   id="glyph48" />
   <glyph
   unicode="5"
   horiz-adv-x="556"
   d="M41.9971 188.003l92.0048 6.99409c6.83143,-44.8272 22.6657,-78.4964 47.3321,-101.162 24.6664,-22.5031 54.8304,-33.8319 90.3295,-33.8319 42.8347,0 78.6672,15.9969 107.839,47.8282 29.0011,32.002 43.5016,74.3325 43.5016,127 0,50.1704 -13.8337,89.6707 -41.6717,118.672 -27.83,29.0011 -64.6628,43.5016 -110.498,43.5016 -28.4968,0 -54.0009,-6.50613 -76.6666,-19.5021 -22.5031,-13.0041 -40.1672,-29.8387 -53.1632,-50.5038l-83.0019 12.0038 68.9975 367.995 354.999 0 0 -83.9941 -284.83 0 -38.1666 -193.167c42.8347,30.164 87.8327,45.1607 134.831,45.1607 62.3368,0 115.004,-21.6654 157.831,-64.9962 42.8347,-43.3308 64.3375,-98.9989 64.3375,-166.996 0,-64.8336 -18.8352,-120.835 -56.4976,-168.004 -45.8357,-58.0021 -108.506,-87.0032 -187.84,-87.0032 -64.9962,0 -117.997,18.3391 -159.164,54.8385 -41.1675,36.4994 -64.6628,84.8318 -70.502,145.168z"
   id="glyph50" />
   <glyph
   unicode="6"
   horiz-adv-x="556"
   d="M499.004 541.001l-87.0032 -7.00222c-7.83175,34.4987 -18.9979,59.6693 -33.4984,75.3328 -23.8368,25.1706 -53.334,37.6705 -88.337,37.6705 -28.1634,0 -53.1632,-7.83175 -74.666,-23.5034 -27.6673,-20.169 -49.3327,-49.4954 -65.5004,-88.1662 -15.9969,-38.8335 -24.3329,-93.9973 -24.9998,-165.5 21.1693,32.1647 47.1694,56.1641 77.8377,71.665 30.6601,15.6716 62.6621,23.5034 96.3314,23.5034 58.669,0 108.669,-21.6654 149.999,-64.8336 41.1675,-43.1682 61.8326,-98.8362 61.8326,-167.338 0,-44.998 -9.66973,-86.6616 -29.0011,-125.332 -19.5021,-38.6627 -45.9983,-68.168 -80.001,-88.6623 -33.8319,-20.5024 -72.3319,-30.839 -115.329,-30.839 -73.1695,0 -133.002,27.0004 -179.333,80.8386 -46.1691,53.8301 -69.3309,142.663 -69.3309,266.328 0,138.337 25.6667,239.003 76.8292,301.836 44.6646,54.6677 104.83,82.0016 180.667,82.0016 56.3349,0 102.667,-15.8343 138.67,-47.3321 35.9952,-31.4978 57.6606,-74.9994 64.8336,-130.667zm-360 -309c0,-30.3348 6.498,-59.3359 19.3313,-87.0032 12.8333,-27.6673 30.8309,-48.6658 53.6674,-63.1664 22.9992,-14.5005 47.3321,-21.8281 73.1614,-21.8281 37.4997,0 69.5017,14.9966 96.0061,44.998 26.4962,30.0014 39.8338,70.6647 39.8338,122.169 0,49.4954 -13.1668,88.4996 -39.3377,116.996 -26.1628,28.4968 -59.4985,42.8347 -99.9992,42.8347 -39.663,0 -73.503,-14.3379 -101.17,-42.8347 -27.6592,-28.4968 -41.4928,-65.8339 -41.4928,-112.166z"
   id="glyph52" />
   <glyph
   unicode="7"
   horiz-adv-x="556"
   d="M46.9986 623.002l0 83.9941 463 0 0 -67.9972c-45.5022,-48.5032 -90.8337,-113.003 -135.498,-193.5 -44.8354,-80.4971 -79.3341,-163.336 -103.838,-248.502 -17.4934,-59.832 -28.8303,-125.666 -33.6611,-196.997l-90.0041 0c1.00032,56.3349 12.0038,124.503 33.165,204.333 21.1693,80.001 51.3333,157.001 90.8337,231.171 39.5003,74.1617 81.5055,136.661 126.007,187.498l-350.005 0z"
   id="glyph54" />
   <glyph
   unicode="8"
   horiz-adv-x="556"
   d="M177.503 388.164c-36.4994,13.3376 -63.4998,32.5062 -81.1721,57.1726 -17.5015,24.829 -26.3336,54.497 -26.3336,88.9957 0,52.171 18.6726,95.8353 56.0015,131.334 37.4997,35.4991 87.1658,53.334 149.332,53.334 62.3368,0 112.67,-18.1684 150.666,-54.497 38.0039,-36.3367 57.0018,-80.5052 57.0018,-132.668 0,-33.165 -8.66942,-62.1661 -26.0001,-86.6698 -17.3307,-24.6664 -43.6643,-43.6643 -79.1633,-57.0018 43.835,-14.3297 77,-37.3289 99.8284,-69.3309 22.8365,-31.8312 34.3361,-69.8352 34.3361,-114.166 0,-61.1657 -21.6654,-112.499 -64.8336,-154.163 -43.3308,-41.6717 -100.17,-62.5076 -170.664,-62.5076 -70.502,0 -127.333,20.8359 -170.672,62.6703 -43.16,41.8344 -64.8336,93.9973 -64.8336,156.497 0,46.5025 11.833,85.5068 35.5072,116.834 23.666,31.5059 57.3271,52.8379 101,64.1667zm-17.5015 149.34c0,-34.0027 10.8327,-61.67 32.3273,-83.1727 21.6735,-21.4946 50.0077,-32.3273 85.1733,-32.3273 34.1653,0 61.8326,10.6619 83.3272,31.9939 21.5028,21.332 32.1728,47.5029 32.1728,78.5046 0,32.3273 -11.0035,59.4985 -33.1731,81.4974 -21.9988,21.9988 -49.8288,33.0023 -83.3272,33.0023 -33.8319,0 -61.67,-10.8327 -83.6688,-32.3355 -21.8362,-21.5028 -32.8315,-47.1694 -32.8315,-77.1627zm-29.0011 -331.007c0,-25.1624 5.83112,-49.3327 17.5015,-72.828 11.6622,-23.3326 29.3345,-41.501 53.0005,-54.3343 23.4953,-12.8333 48.8285,-19.3313 75.6663,-19.3313 42.3305,0 77,13.5002 104.163,40.5006 27.1712,27.0004 40.6714,61.3284 40.6714,103 0,42.3305 -14.0044,77.3335 -41.8344,104.993 -28.0007,27.6673 -63.3372,41.501 -105.838,41.501 -41.6636,0 -75.8289,-13.6629 -102.829,-40.9967 -27.0004,-27.3339 -40.5006,-61.4992 -40.5006,-102.504z"
   id="glyph56" />
   <glyph
   unicode="9"
   horiz-adv-x="556"
   d="M55.0012 166.004l84.0022 6.99409c7.16487,-39.663 20.8277,-68.3306 40.9967,-86.1655 20.169,-17.8349 45.9983,-26.8296 77.6669,-26.8296 27.0004,0 50.6665,6.16456 71.1689,18.6645 20.4943,12.3291 37.1663,28.8303 49.9996,49.6662 12.8333,20.6651 23.666,48.6658 32.4981,83.8315 8.83207,35.1656 13.1668,70.9981 13.1668,107.506 0,3.83048 -0.170786,9.83239 -0.504225,17.6641 -17.4934,-28.0007 -41.4928,-50.8373 -71.8277,-68.168 -30.3348,-17.5015 -63.3372,-26.1628 -98.6654,-26.1628 -59.1732,0 -109.173,21.4946 -150.17,64.5001 -40.8341,42.8266 -61.3365,99.495 -61.3365,169.826 0,72.6734 21.3401,131.001 64.1667,175.34 42.6721,44.1603 96.1687,66.33 160.669,66.33 46.3318,0 88.833,-12.4999 127.504,-37.6705 38.5,-24.9998 67.6637,-60.6615 87.6619,-107.164 19.9982,-46.3318 30.0014,-113.499 30.0014,-201.332 0,-91.5006 -9.83239,-164.337 -29.6679,-218.5 -19.8356,-54.3343 -49.4954,-95.5018 -88.6623,-123.836 -39.1669,-28.3342 -85.0026,-42.5013 -137.67,-42.5013 -56.0015,0 -101.666,15.5008 -137.165,46.6733 -35.3364,31.1644 -56.6684,74.9994 -63.8332,131.334zm359 315.832c0,50.333 -13.3376,90.3295 -40.0046,119.835 -26.4962,29.4972 -58.8317,44.3311 -96.8274,44.3311 -39.3377,0 -73.3322,-15.8343 -102,-47.6655 -28.8384,-31.8394 -43.1682,-73.1695 -43.1682,-123.836 0,-45.5022 13.6629,-82.4977 40.8341,-110.832 27.3339,-28.505 61.3284,-42.6721 101.829,-42.6721 40.6714,0 73.9991,14.1671 100.17,42.6721 26.1628,28.3342 39.1669,67.8345 39.1669,118.168z"
   id="glyph58" />
   <glyph
   unicode=":"
   horiz-adv-x="277"
   d="M89.996 419.003l0 99.9992 100.007 0 0 -99.9992 -100.007 0zm0 -419.003l0 99.9992 100.007 0 0 -99.9992 -100.007 0z"
   id="glyph60" />
   <glyph
   unicode=";"
   horiz-adv-x="277"
   d="M89.0038 419.003l0 99.9992 99.9992 0 0 -99.9992 -99.9992 0zm0 -419.003l0 99.9992 99.9992 0 0 -99.9992c0,-36.8328 -6.50613,-66.6634 -19.6729,-89.3373 -12.996,-22.6657 -33.8319,-40.3299 -62.3287,-52.659l-23.9995 37.6623c18.6645,8.16519 32.3355,20.169 40.9967,36.0033 8.83207,15.8343 13.8337,38.6627 14.834,68.3306l-49.8288 0z"
   id="glyph62" />
   <glyph
   unicode="&lt;"
   horiz-adv-x="583"
   d="M56.0015 313.002l0 82.0016 471.995 199.998 0 -88.0035 -373.997 -153.496 373.997 -155.505 0 -87.9954 -471.995 202.999z"
   id="glyph64" />
   <glyph
   unicode="="
   horiz-adv-x="583"
   d="M527.997 421.003l-471.995 0 0 81.9935 471.995 0 0 -81.9935zm0 -217.004l-471.995 0 0 82.0016 471.995 0 0 -82.0016z"
   id="glyph66" />
   <glyph
   unicode="&gt;"
   horiz-adv-x="583"
   d="M527.997 313.002l-471.995 -202.999 0 87.9954 372.996 155.505 -372.996 153.496 0 88.0035 471.995 -199.998 0 -82.0016z"
   id="glyph68" />
   <glyph
   unicode="?"
   horiz-adv-x="556"
   d="M231 175.999c-0.333439,11.6704 -0.496092,20.5024 -0.496092,26.3336 0,34.4987 4.8308,64.1667 14.6632,89.1665 7.16487,18.9979 18.6645,38.0039 34.6695,57.1645 11.6622,14.0044 32.8315,34.3361 63.1664,61.1739 30.4975,26.8296 50.1622,48.1616 59.3278,64.1667 9.16551,16.1596 13.671,33.4984 13.671,52.4963 0,34.3361 -13.3376,64.5001 -40.0046,90.5002 -26.667,26.0001 -59.3278,38.9961 -97.9986,38.9961 -37.4997,0 -68.664,-11.833 -93.6638,-35.3283 -25.1706,-23.666 -41.501,-60.4989 -49.3327,-110.669l-90.0041 11.0035c8.16519,66.8342 32.1647,118.168 72.3319,153.667 40.1672,35.4991 93.1678,53.334 159.172,53.334 69.827,0 125.495,-19.006 167.167,-57.1726 41.501,-38.1666 62.3287,-84.3276 62.3287,-138.499 0,-31.3351 -7.32753,-60.1654 -21.9988,-86.499 -14.6632,-26.4962 -43.3308,-58.4982 -86.0029,-96.3314 -28.6595,-25.3332 -47.3321,-43.9977 -56.1641,-56.0015 -8.83207,-11.9957 -15.3301,-25.8293 -19.5021,-41.501 -4.16392,-15.5008 -6.66065,-40.8341 -7.32753,-75.9997l-84.0022 0zm-15.9969 -175.999l0 99.9992 99.9992 0 0 -99.9992 -99.9992 0z"
   id="glyph70" />
   <glyph
   unicode="@"
   horiz-adv-x="1015"
   d="M569.002 80.1636c-21.1693,-24.4956 -44.8354,-44.1603 -71.1689,-58.9943 -26.1628,-14.834 -52.4963,-22.1696 -78.8299,-22.1696 -29.0011,0 -57.1726,8.49863 -84.6691,25.3332 -27.3339,16.9973 -49.5035,42.9974 -66.6634,78.1711 -17.168,35.1656 -25.6667,73.8283 -25.6667,115.825 0,51.8376 13.3294,103.667 39.8338,155.667 26.4962,51.8376 59.4985,90.8337 98.8281,117.005 39.3377,26.0001 77.6669,38.9961 114.671,38.9961 28.3342,0 55.3346,-7.32753 81.1639,-22.1615 25.6667,-14.834 47.8363,-37.4997 66.33,-67.6719l17.168 75.8371 87.0032 0 -70.3312 -327.998c-9.84052,-45.673 -14.6713,-70.8355 -14.6713,-75.6663 0,-8.8402 3.33439,-16.5012 10.0032,-22.8365 6.66878,-6.33534 14.834,-9.49895 24.1621,-9.49895 17.3388,0 40.0046,9.83239 68.0053,29.6679 37.1663,26.0001 66.6634,60.8323 88.3288,104.667 21.6654,43.6643 32.4981,88.6623 32.4981,135.165 0,54.3343 -13.9963,105.001 -41.8263,151.999 -27.8381,47.1694 -69.5017,84.8318 -124.836,113.166 -55.1638,28.1634 -116.33,42.3305 -183.164,42.3305 -76.3331,0 -146.168,-17.8268 -209.172,-53.334 -63.1664,-35.6617 -112.166,-86.6616 -146.827,-153.162 -34.8403,-66.5008 -52.171,-137.832 -52.171,-214.003 0,-79.6675 17.3307,-148.161 52.0002,-205.667 34.8322,-57.6606 85.0026,-100.162 150.666,-127.666 65.6712,-27.4965 138.337,-41.1675 218.167,-41.1675 85.4987,0 157.001,14.3379 214.67,43.1682 57.6687,28.6676 100.829,63.6706 129.496,104.838l88.0035 0c-16.672,-34.1734 -45.1688,-69.1683 -85.4987,-104.667 -40.338,-35.4991 -88.337,-63.6706 -144.005,-84.3357 -55.6681,-20.6651 -122.828,-31.0017 -201.161,-31.0017 -72.34,0 -139.003,9.33629 -200.007,27.8381 -61.1657,18.4937 -113.166,46.3318 -156.163,83.498 -42.9974,37.3289 -75.3328,80.1636 -97.169,128.496 -27.3339,61.4992 -40.9967,127.837 -40.9967,199.006 0,79.1633 16.3304,154.83 48.8285,226.665 39.8338,87.9954 96.3395,155.496 169.501,202.332 73.1695,46.836 161.84,70.1686 266.166,70.1686 80.8386,0 153.504,-16.5012 217.833,-49.5035 64.3375,-33.0023 115.167,-82.1643 152.17,-147.502 31.6686,-56.1641 47.5029,-117.33 47.5029,-183.335 0,-94.3307 -33.1731,-178 -99.5031,-251.161 -59.3359,-65.6712 -123.999,-98.5028 -194.33,-98.5028 -22.5031,0 -40.5006,3.49704 -54.3343,10.3366 -13.8337,6.83143 -23.9995,16.6638 -30.5056,29.4972 -4.32658,8.16519 -7.32753,22.3323 -9.32816,42.3305zm-237.002 132.001c0,-44.6646 10.67,-79.3341 31.8312,-104 21.1693,-24.829 45.3396,-37.1663 72.8361,-37.1663 18.1684,0 37.337,5.50581 57.6687,16.3385 20.1609,10.9954 39.5003,27.1631 57.8313,48.6658 18.5018,21.4946 33.4984,48.8285 45.1688,81.8308 11.833,33.0023 17.6641,66.1673 17.6641,99.5031 0,44.1603 -11.0035,78.6672 -33.0023,103 -21.9988,24.4956 -48.8285,36.662 -80.3344,36.662 -20.8277,0 -40.4925,-5.33502 -58.9943,-15.8343 -18.3391,-10.6619 -36.1659,-27.6673 -53.5048,-51.1626 -17.168,-23.3326 -31.1644,-51.8376 -41.501,-85.4987 -10.4993,-33.5066 -15.6635,-64.3375 -15.6635,-92.3382z"
   id="glyph72" />
   <glyph
   unicode="A"
   horiz-adv-x="667"
   d="M-1.49641 0l274.664 715.999 104.163 0 291.499 -715.999 -107.831 0 -82.8311 217.004 -301.502 0 -77.6669 -217.004 -100.495 0zm206 294.004l243.996 0 -74.666 198.494c-22.5031,60.3362 -39.5003,110.165 -51.3333,149.503 -9.83239,-46.6652 -22.9992,-92.5009 -39.5003,-137.832l-78.4964 -210.164z"
   id="glyph74" />
   <glyph
   unicode="B"
   horiz-adv-x="667"
   d="M72.9988 0l0 715.999 268.671 0c54.6677,0 98.4946,-7.16487 131.668,-21.6654 32.9942,-14.5005 58.8317,-36.8328 77.4961,-66.9969 18.8352,-30.0014 28.1634,-61.5073 28.1634,-94.5015 0,-30.5056 -8.32784,-59.3359 -24.829,-86.3363 -16.5012,-27.0004 -41.501,-48.8366 -74.9994,-65.5004 43.3308,-12.6626 76.6666,-34.3361 99.8284,-64.9962 23.3407,-30.5056 35.003,-66.6715 35.003,-108.335 0,-33.6692 -7.16487,-64.8336 -21.332,-93.6638 -14.1671,-28.8384 -31.6686,-50.9999 -52.5045,-66.6715 -20.8277,-15.5008 -46.9986,-27.3339 -78.3338,-35.3283 -31.4978,-8.00254 -69.9978,-12.0038 -115.663,-12.0038l-273.168 0zm94.9976 415.002l154.838 0c41.9971,0 72.1692,2.83017 90.3295,8.32784 24.1703,7.17301 42.3386,19.1687 54.5051,35.8406 12.1665,16.6638 18.331,37.4997 18.331,62.6621 0,23.8368 -5.66846,44.8354 -17.168,62.8329 -11.3288,18.1684 -27.6673,30.6683 -48.8285,37.337 -21.1693,6.66065 -57.506,9.99504 -108.839,9.99504l-143.167 0 0 -216.996zm0 -330.999l178.333 0c30.6683,0 52.171,1.16297 64.6709,3.49704 21.6654,3.83048 39.9964,10.3366 54.6677,19.5021 14.6632,9.16551 26.667,22.4949 36.1659,39.9964 9.49895,17.5015 14.1671,37.6705 14.1671,60.4989 0,26.8378 -6.83143,49.9996 -20.6651,69.8352 -13.671,19.8356 -32.6689,33.6692 -57.0018,41.6717 -24.1703,7.9944 -59.1651,11.9957 -104.667,11.9957l-165.67 0 0 -246.997z"
   id="glyph76" />
   <glyph
   unicode="C"
   horiz-adv-x="722"
   d="M586.999 251.169l94.9976 -23.9995c-19.8274,-77.8377 -55.4973,-137.003 -106.993,-177.837 -51.5041,-40.8341 -114.5,-61.3365 -189.003,-61.3365 -77,0 -139.67,15.6716 -188.003,47.1694 -48.3324,31.3351 -84.9944,76.8374 -110.165,136.336 -25.1624,59.6612 -37.8331,123.494 -37.8331,191.833 0,74.4952 14.1671,139.5 42.6639,194.997 28.505,55.5054 69.0056,97.6651 121.502,126.504 52.5045,28.8303 110.336,43.1682 173.331,43.1682 71.6731,0 131.839,-18.1684 180.504,-54.6677 48.8285,-36.4994 82.8311,-87.6701 102,-153.667l-93.0051 -21.9988c-16.493,52.0002 -40.6633,89.996 -72.1611,113.662 -31.4978,23.8368 -71.1689,35.6698 -119.005,35.6698 -54.8304,0 -100.829,-13.1668 -137.662,-39.5003 -36.8328,-26.3336 -62.8329,-61.8326 -77.6669,-106.172 -15.0048,-44.4938 -22.5031,-90.3295 -22.5031,-137.499 0,-60.8323 8.83207,-113.995 26.5043,-159.327 17.6641,-45.5022 45.1607,-79.3341 82.4977,-101.837 37.337,-22.5031 77.6669,-33.6692 121.169,-33.6692 53.0005,0 97.6651,15.3382 134.335,45.8357 36.662,30.6683 61.4992,75.9997 74.4952,136.336z"
   id="glyph78" />
   <glyph
   unicode="D"
   horiz-adv-x="722"
   d="M77 0l0 715.999 246.664 0c55.6681,0 98.1693,-3.33439 127.504,-10.1658 40.9967,-9.49895 75.9997,-26.667 105.001,-51.3333 37.8331,-32.002 65.9965,-72.6653 84.6691,-122.331 18.8271,-49.6662 28.1634,-106.505 28.1634,-170.339 0,-54.3262 -6.33534,-102.496 -18.9979,-144.493 -12.6707,-42.0052 -29.0011,-76.8374 -48.8366,-104.334 -19.9982,-27.5047 -41.6636,-49.1701 -65.3297,-64.8336 -23.5034,-15.8343 -52.0002,-27.8381 -85.336,-36.0033 -33.4984,-8.16519 -71.8358,-12.1665 -115.167,-12.1665l-258.334 0zm94.9976 84.0022l152.666 0c47.1694,0 84.173,4.33471 111.003,13.1668 26.8296,8.83207 48.1697,21.1612 64.1667,37.1663 22.3323,22.4949 39.8338,52.8298 52.3337,90.8337 12.4999,37.9958 18.8352,83.9941 18.8352,138.166 0,74.9994 -12.3372,132.668 -36.8328,172.998 -24.5037,40.338 -54.3343,67.3303 -89.4999,81.0013 -25.3332,9.83239 -66.1673,14.6632 -122.502,14.6632l-150.17 0 0 -547.995z"
   id="glyph80" />
   <glyph
   unicode="E"
   horiz-adv-x="667"
   d="M79.0007 0l0 715.999 517.001 0 0 -84.0022 -422.004 0 0 -219.997 395.003 0 0 -84.0022 -395.003 0 0 -243.996 439.001 0 0 -84.0022 -533.999 0z"
   id="glyph82" />
   <glyph
   unicode="F"
   horiz-adv-x="610"
   d="M82.0016 0l0 715.999 482.999 0 0 -84.0022 -388.001 0 0 -222.998 336.001 0 0 -84.0022 -336.001 0 0 -324.997 -94.9976 0z"
   id="glyph84" />
   <glyph
   unicode="G"
   horiz-adv-x="777"
   d="M412.001 281l0 84.0022 302.999 0 0 -265.336c-46.5025,-36.9955 -94.5015,-64.9962 -143.997,-83.6688 -49.5035,-18.6645 -100.333,-28.0007 -152.333,-28.0007 -70.3394,0 -134.173,15.0048 -191.671,45.1688 -57.3353,30.0014 -100.829,73.6656 -130.001,130.505 -29.3345,56.9937 -43.9977,120.664 -43.9977,190.833 0,69.6644 14.5005,134.661 43.6643,195.168 29.1719,60.3281 70.9981,105.163 125.666,134.327 54.6677,29.3345 117.671,44.0058 189.003,44.0058 51.6668,0 98.5028,-8.33598 140.329,-25.1706 41.8344,-16.8346 74.6741,-40.1672 98.3401,-69.9978 23.8287,-30.0014 41.8344,-69.1683 54.1635,-117.338l-85.4987 -23.3326c-10.8327,36.3367 -24.1703,65.0044 -40.0046,86.0029 -15.9969,20.8359 -38.6627,37.4997 -68.3306,49.9996 -29.4972,12.4999 -62.3287,18.8352 -98.5028,18.8352 -43.16,0 -80.4971,-6.66878 -112.166,-19.8356 -31.4978,-13.1668 -56.831,-30.4975 -76.3331,-52.1629 -19.3313,-21.5028 -34.328,-45.1688 -44.998,-70.8355 -18.1684,-44.5019 -27.3339,-92.5009 -27.3339,-144.338 0,-63.9959 11.0035,-117.493 32.8315,-160.661 21.9988,-43.0055 54.0009,-74.9994 95.8353,-95.8353 41.9971,-20.8359 86.499,-31.3351 133.668,-31.3351 40.9967,0 81.0013,8.00254 119.997,23.8368 39.0042,15.9969 68.5014,32.8315 88.6704,50.9999l0 134.164 -210.002 0z"
   id="glyph86" />
   <glyph
   unicode="H"
   horiz-adv-x="722"
   d="M81.0013 0l0 715.999 94.9976 0 0 -294.996 370.003 0 0 294.996 94.9976 0 0 -715.999 -94.9976 0 0 337.001 -370.003 0 0 -337.001 -94.9976 0z"
   id="glyph88" />
   <glyph
   unicode="I"
   horiz-adv-x="277"
   d="M92.997 0l0 715.999 95.0057 0 0 -715.999 -95.0057 0z"
   id="glyph90" />
   <glyph
   unicode="J"
   horiz-adv-x="499"
   d="M29.0011 203.333l85.0026 11.6704c2.32594,-54.8385 12.4999,-92.3382 30.6601,-112.67 18.1684,-20.169 43.5016,-30.3348 75.6663,-30.3348 23.666,0 44.1685,5.49768 61.3365,16.3385 17.168,10.9954 29.1637,25.8293 35.6698,44.4938 6.498,18.6726 9.6616,48.6658 9.6616,89.6707l0 493.498 95.0057 0 0 -487.829c0,-59.8401 -7.17301,-106.172 -21.6735,-139.166 -14.5005,-32.8397 -37.3289,-57.8395 -68.8267,-75.1702 -31.3351,-17.168 -68.168,-25.8375 -110.336,-25.8375 -62.8329,0 -110.832,18.0057 -144.168,54.1716 -33.3358,36.1659 -49.3327,89.8334 -47.999,161.165z"
   id="glyph92" />
   <glyph
   unicode="K"
   horiz-adv-x="667"
   d="M72.9988 0l0 715.999 94.9976 0 0 -354.999 355.674 354.999 128.333 0 -300.339 -290.336 313.335 -425.663 -124.999 0 -254.837 361.334 -117.167 -113.337 0 -247.997 -94.9976 0z"
   id="glyph94" />
   <glyph
   unicode="L"
   horiz-adv-x="556"
   d="M72.9988 0l0 715.999 94.9976 0 0 -631.997 352.006 0 0 -84.0022 -447.004 0z"
   id="glyph96" />
   <glyph
   unicode="M"
   horiz-adv-x="833"
   d="M74.9994 0l0 715.999 142.004 0 169.33 -506.836c15.6635,-47.1613 27.0004,-82.4977 34.1653,-106.001 8.16519,26.0001 20.9985,64.3375 38.3374,114.833l172.331 498.003 126.829 0 0 -715.999 -90.9963 0 0 599.003 -209.001 -599.003 -85.336 0 -206.659 609.998 0 -609.998 -91.0045 0z"
   id="glyph98" />
   <glyph
   unicode="N"
   horiz-adv-x="722"
   d="M75.9997 0l0 715.999 97.3317 0 375.672 -561.999 0 561.999 90.9963 0 0 -715.999 -97.3317 0 -375.672 561.999 0 -561.999 -90.9963 0z"
   id="glyph100" />
   <glyph
   unicode="O"
   horiz-adv-x="777"
   d="M47.999 348.501c0,118.664 32.002,211.669 95.8353,278.836 63.8332,67.1595 146.168,100.666 247.168,100.666 66.1673,0 125.666,-15.8343 178.829,-47.3402 53.0005,-31.4978 93.5012,-75.4955 121.339,-131.993 27.83,-56.3349 41.8263,-120.339 41.8263,-191.833 0,-72.5027 -14.6632,-137.507 -43.9977,-194.671 -29.3345,-57.3353 -70.8355,-100.666 -124.503,-130.001 -53.8301,-29.4972 -111.832,-44.1685 -173.998,-44.1685 -67.5011,0 -127.666,16.3385 -180.83,48.8366 -53.0005,32.4981 -93.3385,76.8374 -120.664,133.164 -27.3339,56.1723 -41.0049,115.671 -41.0049,178.504zm97.9986 -1.6672c0,-86.1655 23.1699,-154 69.5017,-203.504 46.3318,-49.4954 104.505,-74.3325 174.502,-74.3325 71.3316,0 129.83,24.9998 175.999,74.9994 45.9983,49.9996 68.9975,121.006 68.9975,213.002 0,58.1648 -9.83239,109.002 -29.4972,152.333 -19.6648,43.3308 -48.5032,77 -86.3363,100.837 -37.9958,23.8287 -80.4971,35.8325 -127.666,35.8325 -66.9969,0 -124.666,-22.9992 -172.998,-69.0056 -48.3324,-45.9983 -72.5027,-122.665 -72.5027,-230.162z"
   id="glyph102" />
   <glyph
   unicode="P"
   horiz-adv-x="667"
   d="M77 0l0 715.999 270.33 0c47.5029,0 83.8396,-2.33407 109.002,-6.83143 35.1656,-5.83112 64.6709,-16.9973 88.4996,-33.3358 23.8368,-16.5012 43.0055,-39.5003 57.506,-68.9975 14.4924,-29.5053 21.6654,-62.0034 21.6654,-97.5025 0,-60.6615 -19.3395,-112.166 -58.1729,-154.163 -38.6627,-42.1678 -108.831,-63.1664 -210.164,-63.1664l-183.668 0 0 -292.003 -94.9976 0zm94.9976 375.997l185.002 0c61.3365,0 104.667,11.3369 130.497,34.1734 25.6667,22.8284 38.5,54.8304 38.5,96.3314 0,29.8306 -7.49831,55.4973 -22.6657,76.8292 -15.1674,21.332 -35.1656,35.4991 -59.832,42.3386 -15.9969,4.16392 -45.5022,6.32721 -88.3288,6.32721l-183.172 0 0 -256z"
   id="glyph104" />
   <glyph
   unicode="Q"
   horiz-adv-x="777"
   d="M618.83 76.8374c44.1685,-30.3348 84.8399,-52.3337 122.169,-66.3381l-28.1634 -65.9965c-51.5041,18.4937 -102.837,47.6655 -154,87.6619 -53.0005,-29.4972 -111.499,-44.1685 -175.503,-44.1685 -64.6628,0 -123.332,15.6716 -175.999,46.836 -52.6671,31.1644 -93.1678,75.1702 -121.665,131.668 -28.505,56.6684 -42.6721,120.331 -42.6721,191.337 0,70.4939 14.3379,134.661 43.0055,192.663 28.4968,57.8313 69.3309,101.837 122.161,132.164 52.8379,30.1722 112.003,45.3396 177.333,45.3396 66.0047,0 125.503,-15.6716 178.504,-47.0068 53.0005,-31.4978 93.5012,-75.3328 121.331,-131.83 27.8381,-56.3349 41.6717,-119.997 41.6717,-190.833 0,-59.0024 -9.00285,-111.832 -27.0004,-158.831 -17.8349,-46.9986 -45.0061,-87.8327 -81.1721,-122.665zm-208.001 120.998c54.5051,-15.3382 99.5031,-38.1666 134.84,-68.3387 55.4973,50.6665 83.3272,126.837 83.3272,228.503 0,57.8313 -9.83239,108.335 -29.4972,151.503 -19.6648,43.3308 -48.3324,76.8292 -86.1655,100.666 -37.8331,23.8287 -80.3344,35.8325 -127.333,35.8325 -70.502,0 -129,-24.1703 -175.332,-72.3319 -46.5025,-48.3324 -69.6644,-120.339 -69.6644,-216.166 0,-92.8343 22.9992,-164.174 68.8267,-214.003 46.0065,-49.6662 104.667,-74.5033 176.17,-74.5033 33.6692,0 65.5004,6.33534 95.5018,19.006 -29.6679,19.1605 -60.8323,32.8315 -93.5012,40.9967l22.8284 68.8348z"
   id="glyph106" />
   <glyph
   unicode="R"
   horiz-adv-x="722"
   d="M79.0007 0l0 715.999 317.336 0c63.8332,0 112.328,-6.498 145.493,-19.3313 33.1731,-12.8333 59.6693,-35.4991 79.5049,-68.0053 19.8274,-32.4981 29.6679,-68.4933 29.6679,-107.831 0,-50.8291 -16.5012,-93.6638 -49.3327,-128.496 -32.8397,-34.8322 -83.5062,-56.8392 -152.17,-66.3381 25.1624,-11.9957 44.1685,-23.9995 57.1645,-35.6617 27.6673,-25.3332 53.8382,-57.1726 78.3338,-95.3392l123.836 -194.997 -118.338 0 -94.6642 148.998c-27.4965,43.1682 -50.333,75.9997 -68.168,98.8362 -17.9976,22.8284 -33.9945,38.6627 -48.1616,47.8282 -14.0044,9.00285 -28.505,15.3382 -43.1682,19.006 -10.67,2.16329 -28.1715,3.33439 -52.6671,3.33439l-109.669 0 0 -318.003 -94.9976 0zm94.9976 399.997l203.333 0c43.3389,0 77,4.50549 101.333,13.5002 24.3329,8.8402 42.8347,23.1699 55.3346,43.0055 12.6707,19.6648 18.9979,40.9967 18.9979,64.1667 0,33.8319 -12.1665,61.8326 -36.662,83.6607 -24.5037,21.8362 -63.1664,32.6689 -116.004,32.6689l-226.332 0 0 -237.002z"
   id="glyph108" />
   <glyph
   unicode="S"
   horiz-adv-x="667"
   d="M45.9983 230l89.0038 8.00254c4.16392,-36.0033 13.9963,-65.5004 29.4972,-88.6704 15.5008,-22.9992 39.5003,-41.6636 71.9984,-56.0015 32.5062,-14.1671 69.1683,-21.332 109.832,-21.332 36.1741,0 68.0053,5.33502 95.6726,16.1677 27.6673,10.8327 48.1616,25.6667 61.6618,44.5019 13.5002,18.8352 20.3398,39.3295 20.3398,61.3284 0,22.3404 -6.50613,41.8344 -19.5021,58.669 -13.0041,16.6638 -34.4987,30.6683 -64.5001,42.1678 -19.1687,7.33566 -61.67,18.9979 -127.504,34.8322 -65.8339,15.8343 -111.832,30.6683 -138.166,44.6646 -34.1653,18.0057 -59.4985,40.338 -76.1624,66.8342 -16.8346,26.5043 -25.1706,56.3349 -25.1706,89.1665 0,36.3367 10.3366,70.1686 30.8309,101.504 20.5024,31.4978 50.333,55.3346 89.8334,71.665 39.3377,16.3304 83.1727,24.5037 131.334,24.5037 53.0005,0 99.8365,-8.50676 140.337,-25.6667 40.5006,-17.0054 71.665,-42.1678 93.5012,-75.5036 21.8281,-33.165 33.4984,-70.8355 35.1656,-112.833l-91.0045 -7.00222c-4.8308,45.1688 -21.332,79.3341 -49.4954,102.333 -28.1715,23.1699 -69.8352,34.6695 -124.836,34.6695 -57.3353,0 -99.1615,-10.4993 -125.332,-31.4978 -26.1628,-21.0067 -39.3295,-46.3399 -39.3295,-75.9997 0,-25.6667 9.32816,-46.836 27.83,-63.4998 18.331,-16.5012 65.8339,-33.6692 142.834,-50.9999 77,-17.5015 129.83,-32.6689 158.497,-45.673 41.501,-19.1605 72.3319,-43.3308 92.1674,-72.828 19.8356,-29.3345 29.6679,-63.1664 29.6679,-101.504 0,-38.1666 -10.8327,-73.8283 -32.6689,-107.497 -21.8281,-33.6692 -53.0005,-59.832 -93.8346,-78.5046 -40.826,-18.6645 -86.6616,-28.0007 -137.832,-28.0007 -64.6628,0 -118.834,9.50708 -162.499,28.3342 -43.835,18.8352 -78.0003,47.1694 -102.829,85.1733 -24.9998,37.8331 -38.0039,80.6597 -39.3377,128.496z"
   id="glyph110" />
   <glyph
   unicode="T"
   horiz-adv-x="610"
   d="M259.001 0l0 631.997 -236.002 0 0 84.0022 567.001 0 0 -84.0022 -236.002 0 0 -631.997 -94.9976 0z"
   id="glyph112" />
   <glyph
   unicode="U"
   horiz-adv-x="722"
   d="M546.002 715.999l94.9976 0 0 -413.497c0,-71.9984 -8.16519,-129.171 -24.3329,-171.502 -16.3304,-42.1678 -45.6649,-76.6666 -88.0035,-103.171 -42.4931,-26.4962 -97.9986,-39.8338 -166.996,-39.8338 -66.8342,0 -121.665,11.5077 -164.166,34.6695 -42.6721,23.1699 -72.9988,56.4976 -91.1671,100.333 -18.1684,43.835 -27.3339,103.667 -27.3339,179.504l0 413.497 94.9976 0 0 -413.334c0,-62.1661 5.83112,-108.164 17.3388,-137.499 11.4996,-29.4972 31.1644,-52.3337 59.3278,-68.168 28.0007,-15.9969 62.3368,-23.9995 102.837,-23.9995 69.3309,0 118.834,15.8343 148.332,47.3321 29.4972,31.6686 44.1685,92.3382 44.1685,182.334l0 413.334z"
   id="glyph114" />
   <glyph
   unicode="V"
   horiz-adv-x="667"
   d="M281 0l-276.665 715.999 102.667 0 186.002 -520.336c14.8258,-41.6636 27.4965,-80.6597 37.4997,-117.167 10.9954,39.1669 23.8287,78.1711 38.5,117.167l192.996 520.336 96.6648 0 -279.162 -715.999 -98.5028 0z"
   id="glyph116" />
   <glyph
   unicode="W"
   horiz-adv-x="943"
   d="M200.503 0l-188.499 715.999 98.332 0 107.335 -469.498c11.6622,-49.1701 21.9988,-97.9986 30.8309,-146.331 18.8352,76.3331 29.8306,120.331 33.0023,131.993l135.327 483.836 114.166 0 102.667 -362.497c25.1706,-90.0041 43.835,-174.502 55.8388,-253.332 9.49895,45.1607 21.6654,96.9982 36.4994,155.496l111.832 460.333 95.1684 0 -196.005 -715.999 -92.1674 0 -150.161 545.498c-12.6707,45.6649 -20.3398,73.6656 -23.1699,84.0022 -8.16519,-32.6689 -15.5008,-60.6696 -21.8362,-83.8315l-150.161 -545.669 -98.9989 0z"
   id="glyph118" />
   <glyph
   unicode="X"
   horiz-adv-x="667"
   d="M4.33471 0l276.665 371.5 -243.663 344.499 112.833 0 130.497 -183.164c27.1631,-38.0039 45.9983,-67.005 56.831,-87.1658 16.1677,24.9998 35.1656,51.6668 57.0018,79.8302l143.005 190.499 103.83 0 -248.664 -340.336 267.662 -375.664 -116.33 0 -180.667 255.333c-10.3366,14.5005 -20.169,29.0011 -29.3345,43.3308 -15.9969,-23.9995 -27.3339,-40.8341 -34.3361,-50.333l-181.497 -248.331 -113.833 0z"
   id="glyph120" />
   <glyph
   unicode="Y"
   horiz-adv-x="667"
   d="M278.836 0l0 303.332 -276.006 412.667 114.004 0 141.5 -216.662c26.3336,-40.1672 50.8291,-80.3344 73.1695,-120.502 21.8281,37.4997 48.3324,79.4968 79.1633,126.162l138.67 211.002 110.498 0 -286.001 -412.667 0 -303.332 -94.9976 0z"
   id="glyph122" />
   <glyph
   unicode="Z"
   horiz-adv-x="610"
   d="M19.9982 0l0 87.4993 366.669 458.999c26.3336,32.3355 50.9999,60.8323 74.5033,85.4987l-399.167 0 0 84.0022 512 0 0 -84.0022 -402.168 -496.662 -43.0055 -51.3333 457.169 0 0 -84.0022 -566.001 0z"
   id="glyph124" />
   <glyph
   unicode="["
   horiz-adv-x="277"
   d="M67.9972 -198.998l0 914.997 194.005 0 0 -72.9988 -106.001 0 0 -769 106.001 0 0 -72.9988 -194.005 0z"
   id="glyph126" />
   <glyph
   unicode="\"
   horiz-adv-x="277"
   d="M207.667 -12.0038l-207.001 740.007 70.3312 0 207.001 -740.007 -70.3312 0z"
   id="glyph128" />
   <glyph
   unicode="]"
   horiz-adv-x="277"
   d="M213.002 -198.998l-194.005 0 0 72.9988 106.001 0 0 769 -106.001 0 0 72.9988 194.005 0 0 -914.997z"
   id="glyph130" />
   <glyph
   unicode="^"
   horiz-adv-x="469"
   d="M116.663 337.001l-89.996 0 171.998 391.002 70.9981 0 173.006 -391.002 -88.0035 0 -120.664 291.003 -117.338 -291.003z"
   id="glyph132" />
   <glyph
   unicode="_"
   horiz-adv-x="556"
   d="M-14.9966 -198.998l0 62.9956 581.998 0 0 -62.9956 -581.998 0z"
   id="glyph134" />
   <glyph
   unicode="`"
   horiz-adv-x="332"
   d="M225.998 582.998l-70.9981 0 -113.003 137.003 118.005 0 65.9965 -137.003z"
   id="glyph136" />
   <glyph
   unicode="a"
   horiz-adv-x="556"
   d="M404.998 64.9962c-32.6689,-27.83 -64.1667,-47.3321 -94.3307,-58.8317 -30.164,-11.4996 -62.4995,-17.168 -97.169,-17.168 -57.0018,0 -100.829,13.8337 -131.497,41.6717 -30.6683,27.6673 -45.9983,63.1664 -45.9983,106.335 0,25.3332 5.83112,48.4951 17.3307,69.4936 11.6622,21.0067 26.8296,37.6705 45.5022,50.333 18.8271,12.6707 39.8338,22.3404 63.329,28.8384 17.3307,4.49736 43.5016,8.83207 78.3338,13.1668 70.9981,8.33598 123.503,18.5018 157.001,30.164 0.333439,12.0038 0.496092,19.6648 0.496092,22.8365 0,35.6617 -8.32784,60.8323 -24.9998,75.4955 -22.4949,19.8356 -55.9934,29.6679 -100.333,29.6679 -41.501,0 -72.1611,-7.33566 -91.834,-21.8281 -19.8274,-14.5005 -34.328,-40.1672 -43.8269,-77.1708l-86.0029 12.0038c7.83175,36.8328 20.6651,66.6634 38.6708,89.3291 17.9976,22.6657 43.9977,40.0046 77.9922,52.3337 33.84,12.1665 73.3403,18.331 118.005,18.331 44.3311,0 80.4971,-5.16424 108.335,-15.6635 27.6673,-10.4993 48.1616,-23.5034 61.1657,-39.3377 12.996,-15.8262 22.1615,-35.8325 27.4965,-59.9946 2.8383,-15.0048 4.33471,-42.0052 4.33471,-80.8386l0 -116.663c0,-81.4974 1.82985,-133.002 5.49768,-154.83 3.50518,-21.8362 10.8327,-42.6721 21.5028,-62.6703l-91.9966 0c-8.8402,18.5018 -14.5005,40.1672 -17.0054,64.9962zm-7.00222 195.005c-31.9939,-13.0041 -79.9928,-23.9995 -143.997,-33.0023 -36.3286,-5.16424 -61.9953,-10.9954 -77,-17.5015 -14.9966,-6.498 -26.4962,-15.9969 -34.6695,-28.3342 -8.16519,-12.4999 -12.3291,-26.3336 -12.3291,-41.6636 0,-23.1699 8.83207,-42.6639 26.667,-58.1648 17.8349,-15.5008 43.835,-23.3326 78.0003,-23.3326 33.8319,0 63.9959,7.32753 90.5002,22.1615 26.3336,14.6713 45.8357,34.8403 58.1648,60.3362 9.49895,19.8356 14.1671,48.9993 14.1671,87.4993l0.496092 32.002z"
   id="glyph138" />
   <glyph
   unicode="b"
   horiz-adv-x="556"
   d="M146.998 0l-82.0016 0 0 715.999 88.0035 0 0 -255.496c37.1663,46.3318 84.4983,69.4936 142.167,69.4936 31.8312,0 62.1661,-6.32721 90.6629,-19.1605 28.505,-12.8333 51.8376,-31.0017 70.3394,-54.1716 18.331,-23.3326 32.8315,-51.3333 43.1682,-84.1649 10.4993,-32.6689 15.6635,-67.8345 15.6635,-105.163 0,-88.6704 -21.9988,-157.334 -65.8339,-205.667 -43.9977,-48.5032 -96.6648,-72.6734 -158.164,-72.6734 -61.1657,0 -109.173,25.504 -144.005,76.3331l0 -65.3297zm-1.00032 263.336c0,-62.0034 8.49863,-106.839 25.3332,-134.506 27.6673,-45.1607 65.0044,-67.8264 112.166,-67.8264 38.5,0 71.6731,16.6638 99.5031,49.9996 28.0007,33.3276 41.9971,82.9938 41.9971,148.998 0,67.6637 -13.3294,117.501 -40.1672,149.665 -26.8296,32.1647 -59.3278,48.3324 -97.3317,48.3324 -38.5,0 -71.665,-16.6638 -99.495,-49.9996 -28.0007,-33.3358 -42.0052,-81.4974 -42.0052,-144.664z"
   id="glyph140" />
   <glyph
   unicode="c"
   horiz-adv-x="499"
   d="M404.998 190.003l86.0029 -12.0038c-9.49895,-59.1651 -33.4984,-105.334 -72.3319,-138.833 -38.8335,-33.4984 -86.6698,-50.1704 -143.167,-50.1704 -70.8355,0 -127.837,23.1699 -170.835,69.5017 -43.1682,46.3318 -64.6709,112.67 -64.6709,198.998 0,56.0015 9.33629,104.838 27.8381,146.835 18.5018,41.8344 46.6652,73.3322 84.6691,94.1681 37.8331,20.9985 78.9925,31.4978 123.665,31.4978 56.1641,0 102.333,-14.1671 137.995,-42.6639 35.8325,-28.4968 58.8398,-68.9975 68.8348,-121.331l-85.0026 -13.0041c-8.16519,34.8322 -22.4949,61.0031 -43.3308,78.6672 -20.6651,17.5015 -45.6649,26.3336 -74.9994,26.3336 -44.3311,0 -80.3344,-15.8343 -108.164,-47.5029 -27.6673,-31.8312 -41.501,-81.8308 -41.501,-150.495 0,-69.6644 13.3294,-120.168 39.9964,-151.666 26.8378,-31.4978 61.67,-47.3321 104.505,-47.3321 34.6614,0 63.4998,10.4993 86.499,31.6604 23.1699,21.0067 37.8331,53.5048 43.9977,97.3398z"
   id="glyph142" />
   <glyph
   unicode="d"
   horiz-adv-x="556"
   d="M400.997 0l0 65.8339c-32.8315,-51.1707 -81.1639,-76.8374 -144.997,-76.8374 -41.3302,0 -79.3341,11.3369 -113.833,34.1734 -34.6695,22.6657 -61.4992,54.497 -80.6679,95.1603 -18.9979,40.8341 -28.4968,87.6701 -28.4968,140.671 0,51.6668 8.66128,98.5028 25.8293,140.662 17.3388,42.0052 43.1682,74.3406 77.6669,96.6729 34.3361,22.4949 72.9988,33.6611 115.5,33.6611 31.3351,0 59.1651,-6.66065 83.498,-19.8274 24.3329,-13.1668 44.1685,-30.5056 59.5067,-51.6668l0 257.496 87.9954 0 0 -715.999 -82.0016 0zm-277.999 258.83c0,-66.33 14.0044,-115.833 42.1678,-148.665 28.0007,-32.8315 61.1657,-49.1619 99.3323,-49.1619 38.5,0 71.1689,15.6635 98.1693,46.9986 26.8296,31.3351 40.3299,79.1633 40.3299,143.501 0,70.6647 -13.6629,122.665 -41.1675,155.83 -27.3339,33.165 -61.1657,49.6662 -101.333,49.6662 -39.1669,0 -71.8277,-15.8343 -98.1612,-47.6655 -26.1709,-31.8312 -39.3377,-82.0016 -39.3377,-150.503z"
   id="glyph144" />
   <glyph
   unicode="e"
   horiz-adv-x="556"
   d="M420.003 167.996l90.9963 -11.9957c-14.1671,-52.8379 -40.6633,-93.9973 -79.3341,-123.169 -38.6627,-29.1637 -87.9954,-43.835 -148.169,-43.835 -75.6663,0 -135.661,23.3407 -180,70.0059 -44.3311,46.4944 -66.4926,111.995 -66.4926,196.168 0,86.9951 22.3323,154.667 67.1595,202.666 44.8354,48.1616 103,72.1611 174.502,72.1611 69.1683,0 125.666,-23.4953 169.501,-70.6647 43.835,-47.1694 65.8339,-113.499 65.8339,-198.998 0,-5.16424 -0.170786,-13.0041 -0.504225,-23.3326l-386.497 0c3.33439,-56.8392 19.3313,-100.503 48.3324,-130.667 28.8384,-30.164 65.0044,-45.3314 108.164,-45.3314 32.1728,0 59.6693,8.49863 82.335,25.4959 22.8365,16.9973 40.8341,44.1685 54.1716,81.4974zm-288.002 141.004l289.002 0c-3.83862,43.6643 -15.0048,76.3331 -33.1731,98.1693 -27.83,33.8319 -64.1667,50.8291 -108.66,50.8291 -40.338,0 -74.1699,-13.5002 -101.666,-40.5006 -27.3339,-27.0004 -42.5013,-63.1664 -45.5022,-108.498z"
   id="glyph146" />
   <glyph
   unicode="f"
   horiz-adv-x="277"
   d="M87.0032 0l0 450.997 -78.0003 0 0 68.0053 78.0003 0 0 55.0012c0,34.8322 2.99282,60.6615 9.16551,77.4961 8.49863,22.6657 23.1618,41.1675 44.5019,55.3346 21.1612,14.1671 50.9999,21.1693 89.3291,21.1693 24.8371,0 52.1629,-3.00095 82.1643,-8.8402l-13.1668 -77c-18.331,3.17174 -35.4991,4.83893 -51.8294,4.83893 -26.667,0 -45.5022,-5.66846 -56.6684,-17.0054 -11.0035,-11.3288 -16.5012,-32.4981 -16.5012,-63.4998l0 -47.4947 101 0 0 -68.0053 -99.9992 0 0 -450.997 -87.9954 0z"
   id="glyph148" />
   <glyph
   unicode="g"
   horiz-adv-x="556"
   d="M49.8369 -42.9974l84.9944 -12.0038c3.50518,-26.3336 13.5002,-45.5022 29.8387,-57.6687 21.8281,-16.1596 51.6668,-24.3329 89.4999,-24.3329 40.6633,0 72.1611,8.17332 94.3307,24.3329 22.1696,16.1677 37.1663,39.0042 44.998,68.168 4.49736,17.8349 6.66878,55.3346 6.33534,112.499 -38.5,-45.3314 -86.3363,-67.9972 -143.663,-67.9972 -71.3397,0 -126.674,25.6667 -165.67,77.1627 -39.1669,51.3333 -58.669,113.003 -58.669,184.839 0,49.4954 9.00285,95.1684 26.8378,136.995 17.8349,41.8344 43.835,74.0072 77.8296,96.8356 34.0027,22.8365 73.9991,34.1653 119.997,34.1653 61.1739,0 111.67,-24.9998 151.341,-74.9994l0 64.004 80.9932 0 0 -448.166c0,-80.8386 -8.16519,-138.003 -24.6664,-171.672 -16.3304,-33.6611 -42.4931,-60.3281 -78.0003,-79.8302 -35.6617,-19.5021 -79.4968,-29.3345 -131.497,-29.3345 -61.8326,0 -111.67,13.8337 -149.665,41.6717 -38.1666,27.6592 -56.4976,69.4936 -55.1638,125.332zm71.9984 311.334c0,-67.8345 13.5002,-117.338 40.5006,-148.502 27.1631,-31.1644 60.9949,-46.836 101.666,-46.836 40.5006,0 74.3325,15.5008 101.829,46.5025 27.3339,31.0017 41.0049,79.6675 41.0049,145.998 0,63.3372 -14.1671,111.165 -42.3386,143.338 -28.1634,32.1647 -62.1661,48.1616 -101.829,48.1616 -39.1669,0 -72.3319,-15.8343 -99.8365,-47.4947 -27.3339,-31.6686 -40.9967,-78.6672 -40.9967,-141.167z"
   id="glyph150" />
   <glyph
   unicode="h"
   horiz-adv-x="556"
   d="M65.9965 0l0 715.999 88.0035 0 0 -257.667c40.8341,47.8363 92.3301,71.665 154.667,71.665 38.1666,0 71.3316,-7.49831 99.6657,-22.6657 28.1634,-15.1674 48.3324,-35.9952 60.4989,-62.6621 12.1665,-26.667 18.1684,-65.5004 18.1684,-116.167l0 -328.503 -88.0035 0 0 328.169c0,43.8269 -9.49895,75.8289 -28.3261,95.8271 -19.006,20.0063 -45.673,30.0014 -80.3344,30.0014 -25.8375,0 -50.1704,-6.66065 -72.9988,-20.1609 -22.8365,-13.5002 -39.0042,-31.8394 -48.8366,-55.0012 -9.66973,-22.9992 -14.5005,-54.8385 -14.5005,-95.5018l0 -283.334 -88.0035 0z"
   id="glyph152" />
   <glyph
   unicode="i"
   horiz-adv-x="222"
   d="M65.9965 616l0 99.9992 88.0035 0 0 -99.9992 -88.0035 0zm0 -616l0 519.002 88.0035 0 0 -519.002 -88.0035 0z"
   id="glyph154" />
   <glyph
   unicode="j"
   horiz-adv-x="222"
   d="M65.5004 614l0 102 88.0035 0 0 -102 -88.0035 0zm-111.336 -814.665l16.1677 74.4952c17.6641,-4.49736 31.4978,-6.83143 41.6717,-6.83143 17.9976,0 31.327,6.0019 40.1591,17.8349 8.8402,11.833 13.3376,41.6636 13.3376,89.1665l0 545.002 88.0035 0 0 -546.832c0,-63.8332 -8.33598,-108.335 -25.0079,-133.335 -21.1612,-32.4981 -56.3268,-48.8366 -105.497,-48.8366 -23.8287,0 -46.6652,3.17174 -68.8348,9.33629z"
   id="glyph156" />
   <glyph
   unicode="k"
   horiz-adv-x="499"
   d="M66.33 0l0 715.999 88.0035 0 0 -407.837 208.001 210.839 113.662 0 -197.998 -192.834 218.004 -326.168 -108.335 0 -172.331 265.165 -61.0031 -59.3359 0 -205.829 -88.0035 0z"
   id="glyph158" />
   <glyph
   unicode="l"
   horiz-adv-x="222"
   d="M64.004 0l0 715.999 87.9954 0 0 -715.999 -87.9954 0z"
   id="glyph160" />
   <glyph
   unicode="m"
   horiz-adv-x="833"
   d="M65.9965 0l0 519.002 79.0007 0 0 -73.3322c16.1677,25.3332 37.8331,45.8275 64.8336,61.1657 27.0004,15.5008 57.6687,23.1618 92.1674,23.1618 38.3374,0 69.8352,-7.9944 94.3389,-23.8287 24.4956,-16.0051 41.8263,-38.1666 51.8294,-66.8342 41.3302,60.4989 94.8349,90.6629 160.831,90.6629 51.6668,0 91.5006,-14.1671 119.168,-42.6639 27.8381,-28.4968 41.8344,-72.3319 41.8344,-131.497l0 -355.836 -88.0035 0 0 326.665c0,35.003 -2.99282,60.3362 -8.66128,75.8371 -5.66846,15.5008 -16.0051,27.83 -31.1725,37.3289 -14.9966,9.49895 -32.6608,14.1671 -52.8298,14.1671 -36.6702,0 -66.9969,-12.1665 -91.1671,-36.3286 -24.1621,-24.3329 -36.1659,-63.1664 -36.1659,-116.5l0 -301.169 -88.0035 0 0 336.83c0,39.0042 -7.16487,68.3387 -21.4946,87.8327 -14.3379,19.5021 -37.8331,29.3345 -70.3394,29.3345 -24.6664,0 -47.4947,-6.498 -68.4933,-19.494 -21.0067,-13.0041 -36.1659,-32.002 -45.673,-57.1726 -9.32816,-24.9998 -13.9963,-61.1657 -13.9963,-108.327l0 -269.004 -88.0035 0z"
   id="glyph162" />
   <glyph
   unicode="n"
   horiz-adv-x="556"
   d="M65.9965 0l0 519.002 79.0007 0 0 -73.6656c38.0039,56.4976 93.0051,84.661 164.833,84.661 31.3351,0 60.0028,-5.66033 86.1737,-16.8346 26.1628,-11.1661 45.8275,-26.0001 58.8317,-44.1603 12.996,-18.1684 22.1615,-39.8338 27.3339,-64.8336 3.1636,-16.3385 4.8308,-44.8354 4.8308,-85.4987l0 -318.67 -88.0035 0 0 315.336c0,35.8325 -3.32626,62.6621 -10.1658,80.3344 -6.83143,17.6641 -18.9979,31.8312 -36.3286,42.4931 -17.3388,10.5074 -37.8331,15.8343 -61.1657,15.8343 -37.337,0 -69.5017,-11.833 -96.6729,-35.6617 -27.1631,-23.666 -40.6633,-68.8348 -40.6633,-135.173l0 -283.163 -88.0035 0z"
   id="glyph164" />
   <glyph
   unicode="o"
   horiz-adv-x="556"
   d="M33.0023 259.497c0,95.8353 26.667,166.833 80.1636,213.002 44.5019,38.3374 98.9989,57.4979 163.166,57.4979 71.1689,0 129.504,-23.3326 174.836,-69.9978 45.1688,-46.5025 67.8345,-111.003 67.8345,-193.167 0,-66.6634 -10.0032,-118.997 -30.0014,-157.164 -19.9982,-38.1666 -49.1701,-67.8345 -87.4993,-89.0038 -38.1666,-21.1612 -80.001,-31.6686 -125.17,-31.6686 -72.6653,0 -131.334,23.1699 -176.162,69.6725 -44.8354,46.4944 -67.1676,113.499 -67.1676,200.828zm89.996 -0.162653c0,-66.3381 14.5005,-116.004 43.5016,-148.836 29.1637,-33.0023 65.6631,-49.4954 109.832,-49.4954 43.6724,0 80.001,16.493 109.165,49.6662 29.0011,33.165 43.5016,83.6607 43.5016,151.495 0,64.004 -14.6632,112.499 -43.835,145.339 -29.1637,32.9942 -65.4923,49.4954 -108.831,49.4954 -44.1685,0 -80.6679,-16.3304 -109.832,-49.1619 -29.0011,-32.8397 -43.5016,-82.335 -43.5016,-148.502z"
   id="glyph166" />
   <glyph
   unicode="p"
   horiz-adv-x="556"
   d="M65.9965 -198.998l0 718 80.001 0 0 -68.168c18.8352,26.3336 40.1672,46.1691 64.004,59.3359 23.666,13.1668 52.4963,19.8274 86.3282,19.8274 44.3393,0 83.3354,-11.3288 117.167,-34.1653 33.84,-22.6657 59.3359,-54.8304 76.6666,-96.1687 17.168,-41.4928 25.8375,-86.8324 25.8375,-136.328 0,-52.8379 -9.49895,-100.503 -28.505,-143.005 -18.9979,-42.3305 -46.6652,-74.8286 -82.9938,-97.4943 -36.1659,-22.5031 -74.3325,-33.84 -114.337,-33.84 -29.3345,0 -55.6681,6.17269 -78.8299,18.5018 -23.3326,12.3372 -42.3386,27.8381 -57.3353,46.6652l0 -253.162 -88.0035 0zm80.001 455.331c0,-66.5008 13.5002,-115.663 40.338,-147.502 27.0004,-31.8312 59.6612,-47.8282 97.9986,-47.8282 38.9961,0 72.3319,16.493 99.9992,49.4954 27.83,33.0023 41.6636,84.0022 41.6636,153.171 0,65.9965 -13.5002,115.329 -40.6633,148.161 -27.1631,32.8397 -59.4985,49.1701 -97.169,49.1701 -37.3289,0 -70.3312,-17.5015 -98.9989,-52.3337 -28.8303,-35.003 -43.1682,-85.6694 -43.1682,-152.333z"
   id="glyph168" />
   <glyph
   unicode="q"
   horiz-adv-x="556"
   d="M396.5 -198.998l0 254.666c-13.6629,-19.1687 -32.8315,-35.003 -57.3353,-47.6655 -24.4956,-12.6707 -50.6665,-19.006 -78.3338,-19.006 -61.4992,0 -114.329,24.5037 -158.831,73.6738 -44.3311,48.9993 -66.5008,116.33 -66.5008,201.666 0,52.0002 9.00285,98.6654 27.0004,139.996 18.1684,41.1675 44.3311,72.5027 78.6672,93.672 34.3361,21.332 71.9984,31.9939 113.003,31.9939 64.1667,0 114.5,-26.8296 151.333,-80.6679l0 69.6725 79.0007 0 0 -718 -88.0035 0zm-270.996 460c0,-66.6715 13.9963,-116.671 41.9971,-149.999 28.0007,-33.3358 61.4992,-49.9996 100.666,-49.9996 37.4997,0 69.6644,15.8343 96.8356,47.4947 27.0004,31.8394 40.5006,80.001 40.5006,144.672 0,68.9975 -14.3379,120.827 -42.8347,155.667 -28.505,34.8322 -61.8326,52.1629 -100.333,52.1629 -38.1666,0 -70.502,-16.1677 -96.9982,-48.5032 -26.5043,-32.3273 -39.8338,-82.8311 -39.8338,-151.495z"
   id="glyph170" />
   <glyph
   unicode="r"
   horiz-adv-x="332"
   d="M64.9962 0l0 519.002 79.0007 0 0 -79.5049c20.169,36.8328 38.8335,61.1657 56.0015,72.8361 17.168,11.833 36.0033,17.6641 56.4976,17.6641 29.6679,0 59.8401,-9.32816 90.5002,-27.83l-31.327 -81.1639c-21.332,11.9957 -42.6721,17.9976 -64.004,17.9976 -19.1687,0 -36.3286,-5.83112 -51.496,-17.3307 -15.1674,-11.4996 -26.0001,-27.5047 -32.5062,-48.0071 -9.83239,-31.1644 -14.6632,-65.3297 -14.6632,-102.496l0 -271.167 -88.0035 0z"
   id="glyph172" />
   <glyph
   unicode="s"
   horiz-adv-x="499"
   d="M31.0017 155l86.9951 13.9963c4.83893,-34.8322 18.5018,-61.4992 40.8341,-80.1636 22.3323,-18.5018 53.6674,-27.83 93.672,-27.83 40.5006,0 70.4939,8.16519 90.1668,24.6664 19.494,16.3304 29.3264,35.6617 29.3264,57.8313 0,19.8356 -8.83207,35.4991 -26.3254,46.836 -12.3372,7.83175 -42.3386,17.6641 -90.0041,29.8306 -64.3293,16.1677 -108.831,30.164 -133.831,41.9971 -24.8371,12.0038 -43.6724,28.3342 -56.5057,49.3327 -12.8333,20.8359 -19.3313,44.0058 -19.3313,69.3391 0,23.1618 5.33502,44.4938 15.8343,64.1667 10.67,19.6648 24.9998,35.9952 43.1682,48.9993 13.6629,9.99504 32.3355,18.5018 55.8307,25.4959 23.666,7.00222 48.8366,10.4993 75.8371,10.4993 40.6633,0 76.3331,-5.83112 107.001,-17.6641 30.8309,-11.6704 53.4966,-27.6673 68.1598,-47.6655 14.5005,-20.169 24.6664,-46.9986 30.1722,-80.6679l-86.0029 -12.0038c-3.83048,27.0004 -15.1674,48.1697 -33.8319,63.3372 -18.6645,15.1674 -44.998,22.6657 -79.1633,22.6657 -40.1672,0 -69.0056,-6.66878 -86.1737,-19.9982 -17.1599,-13.3376 -25.8293,-29.0011 -25.8293,-46.836 0,-11.3288 3.49704,-21.6654 10.6619,-30.8309 7.17301,-9.33629 18.3391,-17.168 33.6692,-23.3326 8.83207,-3.33439 34.4987,-10.8327 77.5042,-22.5031 61.9953,-16.5012 105.334,-30.164 130.001,-40.6633 24.6664,-10.4993 43.9977,-26.0001 57.994,-45.9983 14.1671,-20.169 21.1693,-45.1688 21.1693,-75.1702 0,-29.1637 -8.49863,-56.6684 -25.6667,-82.4977 -17.168,-25.8375 -41.8344,-45.8357 -73.9991,-60.0028 -32.3355,-14.1671 -68.8348,-21.1693 -109.498,-21.1693 -67.3384,0 -118.834,14.0044 -154.171,41.8344 -35.3283,28.0007 -57.8313,69.3391 -67.6637,124.169z"
   id="glyph174" />
   <glyph
   unicode="t"
   horiz-adv-x="277"
   d="M257 78.4964l12.0038 -77.6669c-24.6745,-5.16424 -46.836,-7.83175 -66.1673,-7.83175 -31.8394,0 -56.5057,5.00159 -74.1699,15.1674 -17.5015,10.1658 -29.8306,23.3326 -37.0036,39.8338 -7.16487,16.5012 -10.6619,51.1707 -10.6619,104l0 298.997 -65.0044 0 0 68.0053 65.0044 0 0 128.333 87.9954 52.8298 0 -181.163 88.0035 0 0 -68.0053 -88.0035 0 0 -303.999c0,-25.1624 1.50454,-41.3302 4.66815,-48.4951 3.00095,-7.17301 8.00254,-12.8333 15.0048,-17.168 6.99409,-4.17205 16.9973,-6.33534 29.9932,-6.33534 9.66973,0 22.5031,1.1711 38.3374,3.49704z"
   id="glyph176" />
   <glyph
   unicode="u"
   horiz-adv-x="556"
   d="M404.998 0l0 77.1627c-40.3299,-58.8317 -94.9976,-88.1662 -164.166,-88.1662 -30.4975,0 -59.0024,5.83925 -85.4987,17.5015 -26.5043,11.833 -46.1691,26.5043 -59.0024,44.1685 -12.8333,17.8349 -21.8281,39.5003 -27.0004,65.167 -3.49704,17.3307 -5.32689,44.6646 -5.32689,82.0016l0 321.167 87.9954 0 0 -287.172c0,-45.8275 1.83798,-76.8292 5.33502,-92.6635 5.49768,-23.1699 17.168,-41.1675 35.1656,-54.3343 17.8349,-13.1668 39.8338,-19.8356 66.1673,-19.8356 26.3336,0 50.9999,6.66878 73.9991,20.169 22.9992,13.5002 39.3295,32.002 48.9993,55.172 9.49895,23.1618 14.3379,56.9937 14.3379,101.162l0 277.503 87.9954 0 0 -519.002 -79.0007 0z"
   id="glyph178" />
   <glyph
   unicode="v"
   horiz-adv-x="499"
   d="M207.83 0l-195.826 519.002 94.1599 0 111.003 -310.838c12.0038,-33.4984 23.1699,-68.3306 33.3358,-104.497 7.83175,27.3339 18.6645,60.1654 32.8315,98.6654l115.329 316.67 90.3376 0 -196.501 -519.002 -84.6691 0z"
   id="glyph180" />
   <glyph
   unicode="w"
   horiz-adv-x="722"
   d="M159.335 0l-156.838 519.002 92.0048 0 82.8311 -299.501 29.3345 -111.499c1.16297,5.49768 10.1658,41.1675 26.8296,107.001l82.1724 303.999 90.1668 0 78.163 -301.331 25.504 -98.8362 29.8306 100.162 89.6626 300.006 85.5068 0 -162.84 -519.002 -90.9963 0 -82.335 310.497 -20.8277 88.833 -105.001 -399.33 -93.1678 0z"
   id="glyph182" />
   <glyph
   unicode="x"
   horiz-adv-x="499"
   d="M6.0019 0l189.499 268.833 -175.503 250.169 108.173 0 81.9935 -122.502c15.1674,-22.9992 27.1712,-41.6636 35.6698,-56.3349 14.834,20.8359 28.0007,39.6711 39.8338,56.5057l86.3282 122.331 107.506 0 -176.503 -250.169 188.003 -268.833 -107.001 0 -107.335 160.002 -24.4956 38.5 -138.67 -198.502 -107.497 0z"
   id="glyph184" />
   <glyph
   unicode="y"
   horiz-adv-x="499"
   d="M62.0034 -199.502l-10.0032 81.3347c19.3313,-5.16424 36.0033,-7.83175 50.333,-7.83175 19.6648,0 35.3364,3.33439 46.9986,9.83239 11.833,6.498 21.5028,15.6635 29.0011,27.3339 5.49768,8.83207 14.5005,30.6683 26.8296,65.6631 1.6672,4.83893 4.17205,12.0038 7.83988,21.5028l-197.006 520.669 94.0054 0 108.327 -299.672c14.1671,-37.8331 26.667,-77.8296 37.8413,-119.827 10.1658,39.5003 22.1615,78.4964 36.1659,116.834l110.661 302.665 87.8327 0 -196.16 -528.005c-21.1693,-56.831 -37.6705,-95.8271 -49.5035,-117.33 -15.6635,-28.8303 -33.6692,-49.9996 -53.8301,-63.4998 -20.3398,-13.5002 -44.5019,-20.169 -72.5027,-20.169 -16.9973,0 -36.0033,3.50518 -56.831,10.4993z"
   id="glyph186" />
   <glyph
   unicode="z"
   horiz-adv-x="499"
   d="M19.5021 0l0 71.665 328.665 379.332c-37.337,-2.00063 -70.1686,-2.99282 -98.5028,-2.99282l-210.164 0 0 70.9981 422.996 0 0 -57.8313 -281.333 -329.007 -53.8301 -61.1657c39.5003,3.33439 76.5039,5.00159 111.003,5.00159l240.166 0 0 -75.9997 -458.999 0z"
   id="glyph188" />
   <glyph
   unicode="{"
   horiz-adv-x="334"
   d="M28.0007 298.997c25.1624,0.666878 45.6649,7.33566 61.4992,20.3398 15.8343,12.8333 26.4962,30.4975 31.6686,52.8298 5.16424,22.5031 7.9944,60.8323 8.32784,115.167 0.170786,54.3343 1.00032,90.1668 2.50486,107.497 3.00095,27.3339 8.33598,49.1701 16.3304,65.8339 7.83175,16.5012 17.6723,29.8387 29.3345,39.8338 11.6704,9.83239 26.667,17.5015 44.8354,22.6657 12.3291,3.17174 32.3355,4.83893 60.3281,4.83893l27.1712 0 0 -77 -15.0048 0c-33.4984,0 -55.6599,-6.17269 -66.6634,-18.3391 -10.8327,-12.1665 -16.3304,-39.3295 -16.3304,-81.66 0,-85.1733 -1.83798,-139.003 -5.50581,-161.506 -5.83112,-34.8322 -15.9969,-61.6618 -30.164,-80.4971 -14.3297,-18.8352 -36.662,-35.6698 -67.3303,-50.1704 36.1659,-14.9966 62.3287,-37.8331 78.6672,-68.4933 16.1677,-30.6683 24.3329,-81.0013 24.3329,-150.836 0,-63.3372 0.333439,-101 1.00032,-113.003 2.66751,-22.1615 9.16551,-37.4997 19.6648,-46.3318 10.67,-8.83207 31.3351,-13.1668 62.1661,-13.1668l15.1674 0 0 -77 -27.3339 0c-31.8312,0 -55.0012,2.66751 -69.3309,7.83175 -20.6732,7.50645 -38.0039,19.5021 -51.6668,36.3367 -13.671,16.6638 -22.5031,37.8331 -26.5043,63.4998 -4.16392,25.6667 -6.33534,67.8345 -6.66878,126.333 -0.325306,58.4982 -3.1636,98.9989 -8.32784,121.331 -5.16424,22.5031 -15.5008,40.1672 -31.1644,53.1713 -15.8343,12.996 -36.0033,19.8274 -61.0031,20.4943l0 80.001z"
   id="glyph190" />
   <glyph
   unicode="|"
   horiz-adv-x="259"
   d="M91.9966 -210.002l0 938.005 77 0 0 -938.005 -77 0z"
   id="glyph192" />
   <glyph
   unicode="}"
   horiz-adv-x="334"
   d="M305.999 298.997l0 -80.001c-25.1624,-0.666878 -45.6649,-7.49831 -61.4992,-20.4943 -15.8343,-13.0041 -26.5043,-30.6683 -31.6686,-52.8379 -5.16424,-22.3323 -7.9944,-60.4989 -8.32784,-114.833 -0.170786,-54.3343 -1.00032,-89.996 -2.50486,-107.335 -3.00095,-27.4965 -8.33598,-49.4954 -16.3304,-65.9965 -8.00254,-16.3304 -17.8349,-29.4972 -29.6679,-39.5003 -11.6704,-9.83239 -26.667,-17.5015 -44.998,-22.6657 -12.3372,-3.49704 -32.5062,-5.33502 -60.6696,-5.33502l-27.3339 0 0 77 15.1674 0c33.8319,0 56.1641,6.16456 67.3303,18.331 11.0035,12.1665 16.5012,39.5003 16.5012,82.0016 0,81.3347 1.33376,132.668 4.00127,154.504 5.16424,35.9952 15.6635,64.8336 31.3351,86.499 15.8343,21.6654 37.9958,38.3292 66.8342,50.4957 -37.8331,17.8349 -64.5001,41.501 -80.001,70.8355 -15.5008,29.4972 -23.1699,79.1714 -23.1699,149.169 0,63.329 -0.333439,101.333 -1.00032,113.662 -2.33407,21.6735 -8.66128,37.0036 -19.3313,45.5022 -10.67,8.66942 -31.4978,13.0041 -62.4995,13.0041l-15.1674 0 0 77 27.3339 0c31.8312,0 55.0012,-2.66751 69.3309,-7.83988 20.8359,-7.16487 38.0039,-19.1605 51.6668,-36.1659 13.671,-16.8346 22.5031,-38.1666 26.5043,-63.8332 4.16392,-25.6667 6.33534,-67.8345 6.66878,-126.495 0.333439,-58.4982 3.1636,-98.9989 8.32784,-121.169 5.16424,-22.3323 15.8343,-39.9964 31.6686,-53.0005 15.8343,-12.996 36.3367,-19.8356 61.4992,-20.5024z"
   id="glyph194" />
   <glyph
   unicode="~"
   horiz-adv-x="583"
   d="M41.9971 272.997l0 99.9992c34.5069,38.6708 79.8383,58.0021 135.84,58.0021 19.6648,0 40.1591,-2.83017 61.6618,-8.66128 21.5028,-5.66846 52.171,-17.168 91.834,-34.1734 22.5031,-9.49895 39.3377,-15.8343 50.6665,-18.6645 11.1661,-3.00095 22.5031,-4.49736 33.8319,-4.49736 21.332,0 43.1682,6.33534 65.8339,18.9979 22.6657,12.8333 42.6721,28.8303 60.3362,47.999l0 -104c-20.8359,-19.3313 -42.0052,-33.3276 -63.3372,-41.9971 -21.332,-8.66942 -45.3314,-13.0041 -71.9984,-13.0041 -19.6648,0 -38.3292,2.33407 -56.0015,6.83957 -17.8268,4.66001 -45.9983,15.6635 -84.4983,32.9942 -38.6627,17.5015 -70.8355,26.1709 -96.6648,26.1709 -20.8359,0 -40.5006,-4.50549 -58.8317,-13.3376 -18.3391,-8.83207 -41.3383,-26.4962 -68.6722,-52.6671z"
   id="glyph196" />
   <glyph
   unicode=""
   horiz-adv-x="750"
   d="M124.999 0l0 625.003 500.004 0 0 -625.003 -500.004 0zm16.0051 15.9969l467.994 0 0 593.001 -467.994 0 0 -593.001z"
   id="glyph198" />
   <glyph
   unicode=""
   horiz-adv-x="750"
   d="M124.999 0l0 625.003 500.004 0 0 -625.003 -500.004 0zm16.0051 15.9969l467.994 0 0 593.001 -467.994 0 0 -593.001z"
   id="glyph200" />
   <glyph
   unicode=""
   horiz-adv-x="750"
   d="M124.999 0l0 625.003 500.004 0 0 -625.003 -500.004 0zm16.0051 15.9969l467.994 0 0 593.001 -467.994 0 0 -593.001z"
   id="glyph202" />
   <glyph
   unicode=""
   horiz-adv-x="750"
   d="M124.999 0l0 625.003 500.004 0 0 -625.003 -500.004 0zm16.0051 15.9969l467.994 0 0 593.001 -467.994 0 0 -593.001z"
   id="glyph204" />
   <glyph
   unicode=""
   horiz-adv-x="750"
   d="M124.999 0l0 625.003 500.004 0 0 -625.003 -500.004 0zm16.0051 15.9969l467.994 0 0 593.001 -467.994 0 0 -593.001z"
   id="glyph206" />
   <glyph
   unicode=""
   horiz-adv-x="750"
   d="M124.999 0l0 625.003 500.004 0 0 -625.003 -500.004 0zm16.0051 15.9969l467.994 0 0 593.001 -467.994 0 0 -593.001z"
   id="glyph208" />
   <glyph
   unicode=""
   horiz-adv-x="750"
   d="M124.999 0l0 625.003 500.004 0 0 -625.003 -500.004 0zm16.0051 15.9969l467.994 0 0 593.001 -467.994 0 0 -593.001z"
   id="glyph210" />
   <glyph
   unicode=""
   horiz-adv-x="750"
   d="M124.999 0l0 625.003 500.004 0 0 -625.003 -500.004 0zm16.0051 15.9969l467.994 0 0 593.001 -467.994 0 0 -593.001z"
   id="glyph212" />
   <glyph
   unicode=""
   horiz-adv-x="750"
   d="M124.999 0l0 625.003 500.004 0 0 -625.003 -500.004 0zm16.0051 15.9969l467.994 0 0 593.001 -467.994 0 0 -593.001z"
   id="glyph214" />
   <glyph
   unicode=""
   horiz-adv-x="750"
   d="M124.999 0l0 625.003 500.004 0 0 -625.003 -500.004 0zm16.0051 15.9969l467.994 0 0 593.001 -467.994 0 0 -593.001z"
   id="glyph216" />
   <glyph
   unicode=""
   horiz-adv-x="750"
   d="M124.999 0l0 625.003 500.004 0 0 -625.003 -500.004 0zm16.0051 15.9969l467.994 0 0 593.001 -467.994 0 0 -593.001z"
   id="glyph218" />
   <glyph
   unicode=""
   horiz-adv-x="750"
   d="M124.999 0l0 625.003 500.004 0 0 -625.003 -500.004 0zm16.0051 15.9969l467.994 0 0 593.001 -467.994 0 0 -593.001z"
   id="glyph220" />
   <glyph
   unicode=""
   horiz-adv-x="750"
   d="M124.999 0l0 625.003 500.004 0 0 -625.003 -500.004 0zm16.0051 15.9969l467.994 0 0 593.001 -467.994 0 0 -593.001z"
   id="glyph222" />
   <glyph
   unicode=""
   horiz-adv-x="750"
   d="M124.999 0l0 625.003 500.004 0 0 -625.003 -500.004 0zm16.0051 15.9969l467.994 0 0 593.001 -467.994 0 0 -593.001z"
   id="glyph224" />
   <glyph
   unicode=""
   horiz-adv-x="750"
   d="M124.999 0l0 625.003 500.004 0 0 -625.003 -500.004 0zm16.0051 15.9969l467.994 0 0 593.001 -467.994 0 0 -593.001z"
   id="glyph226" />
   <glyph
   unicode=""
   horiz-adv-x="750"
   d="M124.999 0l0 625.003 500.004 0 0 -625.003 -500.004 0zm16.0051 15.9969l467.994 0 0 593.001 -467.994 0 0 -593.001z"
   id="glyph228" />
   <glyph
   unicode=""
   horiz-adv-x="750"
   d="M124.999 0l0 625.003 500.004 0 0 -625.003 -500.004 0zm16.0051 15.9969l467.994 0 0 593.001 -467.994 0 0 -593.001z"
   id="glyph230" />
   <glyph
   unicode=""
   horiz-adv-x="750"
   d="M124.999 0l0 625.003 500.004 0 0 -625.003 -500.004 0zm16.0051 15.9969l467.994 0 0 593.001 -467.994 0 0 -593.001z"
   id="glyph232" />
   <glyph
   unicode=""
   horiz-adv-x="750"
   d="M124.999 0l0 625.003 500.004 0 0 -625.003 -500.004 0zm16.0051 15.9969l467.994 0 0 593.001 -467.994 0 0 -593.001z"
   id="glyph234" />
   <glyph
   unicode=""
   horiz-adv-x="750"
   d="M124.999 0l0 625.003 500.004 0 0 -625.003 -500.004 0zm16.0051 15.9969l467.994 0 0 593.001 -467.994 0 0 -593.001z"
   id="glyph236" />
   <glyph
   unicode=""
   horiz-adv-x="750"
   d="M124.999 0l0 625.003 500.004 0 0 -625.003 -500.004 0zm16.0051 15.9969l467.994 0 0 593.001 -467.994 0 0 -593.001z"
   id="glyph238" />
   <glyph
   unicode=""
   horiz-adv-x="750"
   d="M124.999 0l0 625.003 500.004 0 0 -625.003 -500.004 0zm16.0051 15.9969l467.994 0 0 593.001 -467.994 0 0 -593.001z"
   id="glyph240" />
   <glyph
   unicode=""
   horiz-adv-x="750"
   d="M124.999 0l0 625.003 500.004 0 0 -625.003 -500.004 0zm16.0051 15.9969l467.994 0 0 593.001 -467.994 0 0 -593.001z"
   id="glyph242" />
   <glyph
   unicode=""
   horiz-adv-x="750"
   d="M124.999 0l0 625.003 500.004 0 0 -625.003 -500.004 0zm16.0051 15.9969l467.994 0 0 593.001 -467.994 0 0 -593.001z"
   id="glyph244" />
   <glyph
   unicode=""
   horiz-adv-x="750"
   d="M124.999 0l0 625.003 500.004 0 0 -625.003 -500.004 0zm16.0051 15.9969l467.994 0 0 593.001 -467.994 0 0 -593.001z"
   id="glyph246" />
   <glyph
   unicode=""
   horiz-adv-x="750"
   d="M124.999 0l0 625.003 500.004 0 0 -625.003 -500.004 0zm16.0051 15.9969l467.994 0 0 593.001 -467.994 0 0 -593.001z"
   id="glyph248" />
   <glyph
   unicode=""
   horiz-adv-x="750"
   d="M124.999 0l0 625.003 500.004 0 0 -625.003 -500.004 0zm16.0051 15.9969l467.994 0 0 593.001 -467.994 0 0 -593.001z"
   id="glyph250" />
   <glyph
   unicode=""
   horiz-adv-x="750"
   d="M124.999 0l0 625.003 500.004 0 0 -625.003 -500.004 0zm16.0051 15.9969l467.994 0 0 593.001 -467.994 0 0 -593.001z"
   id="glyph252" />
   <glyph
   unicode=""
   horiz-adv-x="750"
   d="M124.999 0l0 625.003 500.004 0 0 -625.003 -500.004 0zm16.0051 15.9969l467.994 0 0 593.001 -467.994 0 0 -593.001z"
   id="glyph254" />
   <glyph
   unicode=""
   horiz-adv-x="750"
   d="M124.999 0l0 625.003 500.004 0 0 -625.003 -500.004 0zm16.0051 15.9969l467.994 0 0 593.001 -467.994 0 0 -593.001z"
   id="glyph256" />
   <glyph
   unicode=""
   horiz-adv-x="750"
   d="M124.999 0l0 625.003 500.004 0 0 -625.003 -500.004 0zm16.0051 15.9969l467.994 0 0 593.001 -467.994 0 0 -593.001z"
   id="glyph258" />
   <glyph
   unicode=""
   horiz-adv-x="750"
   d="M124.999 0l0 625.003 500.004 0 0 -625.003 -500.004 0zm16.0051 15.9969l467.994 0 0 593.001 -467.994 0 0 -593.001z"
   id="glyph260" />
   <glyph
   unicode=""
   horiz-adv-x="750"
   d="M124.999 0l0 625.003 500.004 0 0 -625.003 -500.004 0zm16.0051 15.9969l467.994 0 0 593.001 -467.994 0 0 -593.001z"
   id="glyph262" />
   <glyph
   unicode="¡"
   horiz-adv-x="332"
   d="M218.329 519.002l0 -99.9992 -101 0 0 99.9992 101 0zm-22.9992 -178l27.0004 -379.169 0 -158.831 -108.994 0 0 158.831 24.9998 379.169 56.9937 0z"
   id="glyph264" />
   <glyph
   unicode="¢"
   horiz-adv-x="556"
   d="M363.164 436l-108.994 -373.501c10.8327,-3.00095 20.8277,-4.49736 29.9932,-4.49736 34.1734,0 63.6706,11.4996 88.337,34.6614 24.8371,23.1699 39.9964,55.6681 45.5022,97.3398l86.9951 -10.0032c-10.8327,-60.3362 -36.3286,-107.668 -76.6666,-142.167 -40.3299,-34.4987 -87.9954,-51.8294 -142.834,-51.8294 -15.9969,0 -32.8315,2.32594 -50.4957,7.16487l-57.3353 -192.834 -54.6677 15.5008 56.6684 194.167c-37.4997,17.8268 -68.168,47.6655 -91.9966,89.4999 -23.8368,41.6636 -35.6698,93.9973 -35.6698,156.83 0,57.8313 9.49895,107.497 28.4968,148.998 19.006,41.501 47.5029,72.6653 85.336,93.5012 38.0039,20.8359 76.5039,31.1644 116.004,31.1644 11.6622,0 27.83,-1.00032 48.6658,-3.00095l55.3265 189.336 54.5051 -15.9969 -55.172 -189.003c32.3355,-13.9963 57.1726,-32.8315 74.3406,-56.6684 17.3307,-23.666 29.4972,-53.334 36.3286,-88.9957l-85.1652 -13.1668c-8.66942,36.3286 -24.3329,64.1667 -47.5029,83.498zm-52.6671 21.9988c-10.4993,1.33376 -18.4937,2.00063 -24.4956,2.00063 -26.5043,0 -51.5041,-7.33566 -74.666,-22.1696 -23.1699,-14.8258 -40.5006,-37.6623 -52.0002,-68.8267 -11.4996,-31.0017 -17.3388,-67.005 -17.3388,-108.002 0,-42.8347 5.17237,-79.1714 15.6716,-108.669 10.3285,-29.4972 25.1624,-51.496 44.3311,-65.8339l108.498 371.5z"
   id="glyph266" />
   <glyph
   unicode="£"
   horiz-adv-x="556"
   d="M192.663 395.003l153.341 0 0 -72.0066 -138.174 0c6.17269,-14.1671 9.17364,-28.3261 9.17364,-42.6639 0,-28.0007 -6.83957,-57.8313 -20.3398,-88.9957 -13.5002,-31.3351 -35.6617,-63.3372 -66.6634,-96.0061 25.8293,7.17301 49.1701,10.67 70.3312,10.67 27.0004,0 57.4979,-4.16392 91.3379,-12.4999 55.9934,-13.671 93.8265,-20.5024 113.662,-20.5024 23.9995,0 55.3346,9.33629 93.672,28.0007l28.9929 -81.0013c-29.9932,-12.8333 -53.334,-21.1612 -69.6644,-25.1624 -16.5012,-3.83862 -33.0023,-5.83925 -49.1619,-5.83925 -13.8337,0 -27.6673,1.33376 -41.6717,3.83862 -8.83207,1.6672 -30.0014,7.66097 -63.329,17.9976 -33.5066,10.1658 -55.172,16.3304 -64.8336,18.331 -15.3382,2.50486 -30.6683,3.83862 -46.0065,3.83862 -23.4953,0 -48.4951,-4.17205 -75.162,-12.6707 -26.667,-8.32784 -50.8373,-19.8356 -72.6653,-34.328l-33.4984 83.9941c31.4978,17.3388 58.1648,42.1678 80.1636,74.3325 21.8362,32.1728 32.8315,71.5023 32.8315,117.834 0,19.9982 -2.83017,40.1672 -8.33598,60.8323l-96.6648 0 0 72.0066 75.9997 0c-10.8327,36.4994 -17.6641,62.9956 -20.4943,79.8302 -3.00095,16.8346 -4.50549,33.165 -4.50549,48.9993 0,67.8345 24.9998,120.664 75.1702,158.831 40.3299,30.1722 89.1665,45.3396 146.502,45.3396 58.9943,0 107.497,-16.1677 145.827,-48.5032 38.1666,-32.4981 61.67,-78.0003 70.502,-136.499l-86.9951 -13.0041c-4.83893,39.0042 -19.5021,69.8352 -43.6724,92.3382 -24.3329,22.4949 -53.334,33.6611 -87.3285,33.6611 -36.1659,0 -66.1673,-11.6622 -90.1668,-34.9948 -23.8368,-23.1699 -35.8325,-51.3333 -35.8325,-84.3357 0,-36.1659 9.16551,-83.3354 27.6592,-141.663z"
   id="glyph268" />
   <glyph
   unicode="¤"
   horiz-adv-x="556"
   d="M104 469.336l-67.9972 66.5008 56.3268 58.1648 67.8345 -68.0053c34.4987,23.3407 72.9988,35.003 115.671,35.003 42.8347,0 81.4974,-11.6622 115.663,-35.003l67.8345 68.0053 56.6684 -58.1648 -67.9972 -66.5008c23.3326,-35.8325 34.9948,-74.1699 34.9948,-114.833 0,-41.0049 -11.6622,-79.5049 -34.9948,-115.337l67.9972 -66.5008 -56.6684 -58.6609 -67.8345 68.9975c-34.1653,-23.9995 -72.828,-36.0033 -115.663,-36.0033 -42.6721,0 -81.1721,12.0038 -115.671,36.0033l-67.8345 -68.9975 -56.3268 58.6609 67.9972 66.5008c-23.3326,35.8325 -35.003,74.3325 -35.003,115.337 0,40.6633 11.6704,79.0007 35.003,114.833zm44.998 -115.004c0,-35.3283 12.3372,-65.3297 37.1663,-90.1668 24.6664,-24.829 54.5051,-37.1663 89.3373,-37.1663 34.8322,0 64.6628,12.3372 89.3291,37.1663 24.8371,24.8371 37.1663,54.8385 37.1663,90.1668 0,34.8322 -12.3291,64.6709 -36.8328,89.4999 -24.6664,24.8371 -54.497,37.1663 -89.6626,37.1663 -34.8322,0 -64.6709,-12.3291 -89.3373,-37.1663 -24.829,-24.829 -37.1663,-54.6677 -37.1663,-89.4999z"
   id="glyph270" />
   <glyph
   unicode="¥"
   horiz-adv-x="556"
   d="M233.001 0l0 160.002 -201.999 0 0 66.9969 201.999 0 0 69.9978 -201.999 0 0 72.0066 165.329 0 -197.331 346.996 97.9986 0 140.671 -252.169c15.6635,-28.8303 28.1634,-53.8301 37.3289,-74.9994 8.16519,16.672 21.8362,43.0055 40.8341,79.0007l133.164 248.168 104 0 -196.664 -346.996 165.67 0 0 -72.0066 -201.007 0 0 -69.9978 201.007 0 0 -66.9969 -201.007 0 0 -160.002 -87.9954 0z"
   id="glyph272" />
   <glyph
   unicode="¦"
   horiz-adv-x="259"
   d="M168.997 728.003l0 -385 -77 0 0 385 77 0zm0 -552.004l0 -386 -77 0 0 386 77 0z"
   id="glyph274" />
   <glyph
   unicode="§"
   horiz-adv-x="556"
   d="M69.9978 -34.0027l88.0035 13.0041c9.16551,-42.3386 23.8287,-72.1692 43.835,-89.3373 19.8274,-17.168 47.1613,-25.6667 81.4974,-25.6667 33.4984,0 59.4985,8.49863 78.3338,25.504 18.8352,16.8346 28.3342,36.8328 28.3342,59.6612 0,16.5012 -5.83112,31.8394 -17.6723,45.8357 -20.1609,24.5037 -75.6663,64.5001 -166.329,119.835 -48.3324,29.6679 -82.0016,52.8298 -101,69.5017 -19.1687,16.8346 -34.8322,36.662 -46.836,59.3278 -12.1665,22.8365 -18.1684,46.6733 -18.1684,71.3397 0,31.327 9.84052,59.6612 29.3345,84.9944 19.6729,25.504 46.5025,43.1682 80.8386,53.334 -23.1699,21.9988 -39.5003,42.3386 -48.9993,61.0031 -9.50708,18.8352 -14.1671,38.6627 -14.1671,59.6693 0,41.6636 16.3304,77.6669 48.8285,108.164 32.4981,30.4975 75.5036,45.8357 129.171,45.8357 60.8323,0 108.327,-14.5005 142.5,-43.3389 34.1653,-28.8303 54.6596,-70.8273 61.4992,-125.666l-91.0045 -8.99472c-6.83143,39.5003 -18.8352,67.1595 -35.8325,82.6604 -17.168,15.5008 -40.1672,23.3326 -69.1683,23.3326 -29.8306,0 -54.0009,-7.9944 -72.4945,-24.1621 -18.3391,-16.0051 -27.5047,-33.8319 -27.5047,-53.334 0,-16.8346 5.83925,-32.3355 17.6723,-46.6652 18.331,-21.9988 68.1598,-57.8313 149.495,-107.335 51.1707,-31.3351 85.6694,-54.1635 103.667,-68.8348 22.9992,-19.6648 40.0046,-39.8338 50.8373,-60.6696 10.8327,-20.8277 16.3304,-43.4935 16.3304,-67.8264 0,-36.8328 -11.833,-68.3387 -35.4991,-94.3389 -13.671,-14.9966 -38.6708,-30.164 -74.9994,-45.3314 26.0001,-19.9982 45.5022,-41.3302 58.3356,-63.9959 12.8333,-22.8365 19.1605,-47.3402 19.1605,-73.3403 0,-28.6595 -8.16519,-55.6599 -24.4956,-81.3266 -16.3385,-25.504 -39.6711,-45.0061 -70.3312,-58.5064 -30.6683,-13.5002 -63.8332,-20.3316 -99.3404,-20.3316 -62.3287,0 -111.832,15.5008 -148.332,46.5025 -36.4994,31.1644 -58.3356,74.3325 -65.5004,129.496zm286.668 153.667c24.1703,12.3372 41.9971,26.8378 53.8301,43.1682 11.6704,16.5012 17.5015,32.4981 17.5015,48.1697 0,18.5018 -8.32784,38.1666 -25.1624,58.6609 -17.0054,20.5024 -53.6674,48.0071 -109.832,82.5058 -44.6727,27.3339 -78.0003,49.8288 -100.007,67.3303 -26.3336,-14.834 -44.998,-29.8306 -56.1641,-44.8354 -11.1661,-14.9966 -16.8346,-31.6604 -16.8346,-49.8288 0,-20.5024 7.50645,-40.0046 22.3323,-58.669 15.0048,-18.5018 48.674,-43.3308 101.17,-74.1617 43.835,-25.8375 81.4974,-49.8369 113.166,-72.34z"
   id="glyph276" />
   <glyph
   unicode="¨"
   horiz-adv-x="332"
   d="M29.0011 620.001l0 99.9992 91.9966 0 0 -99.9992 -91.9966 0zm182.001 0l0 99.9992 91.9966 0 0 -99.9992 -91.9966 0z"
   id="glyph278" />
   <glyph
   unicode="©"
   horiz-adv-x="736"
   d="M369.833 728.003c61.8326,0 122.169,-15.8343 181.171,-47.6737 58.8317,-31.6604 104.83,-77.1627 137.662,-136.165 32.8315,-59.1651 49.3327,-120.835 49.3327,-184.831 0,-63.4998 -16.1677,-124.666 -48.6658,-183.164 -32.3355,-58.669 -77.6669,-104.171 -136.165,-136.507 -58.4982,-32.4981 -119.664,-48.6658 -183.335,-48.6658 -63.8332,0 -124.999,16.1677 -183.497,48.6658 -58.4982,32.3355 -104,77.8377 -136.499,136.507 -32.5062,58.4982 -48.8366,119.664 -48.8366,183.164 0,63.9959 16.5012,125.666 49.5035,184.831 33.165,59.0024 79.1633,104.505 137.995,136.165 59.0024,31.8394 119.331,47.6737 181.334,47.6737zm0 -61.0031c-51.8294,0 -102.333,-13.3294 -151.333,-39.8338 -48.9993,-26.4962 -87.3366,-64.5001 -115.004,-113.833 -27.6592,-49.3327 -41.4928,-100.666 -41.4928,-154 0,-53.1632 13.6629,-104 40.826,-152.666 27.1712,-48.6658 65.167,-86.6698 114.004,-113.833 48.8366,-27.1712 99.8365,-40.8341 153,-40.8341 53.0005,0 104,13.6629 152.837,40.8341 48.8285,27.1631 86.8324,65.167 113.833,113.833 27.0004,48.6658 40.5006,99.5031 40.5006,152.666 0,53.334 -13.8337,104.667 -41.3383,154 -27.4965,49.3327 -65.8339,87.3366 -114.996,113.833 -49.1701,26.5043 -99.5031,39.8338 -150.836,39.8338zm118.168 -367.003l60.0028 -17.9976c-9.83239,-40.6633 -30.5056,-73.3322 -62.1661,-97.5025 -31.8394,-24.3329 -70.3394,-36.4994 -115.5,-36.4994 -57.3353,0 -103.838,18.5018 -139.67,55.6681 -35.8325,37.1663 -53.6674,88.4996 -53.6674,154.333 0,42.9974 8.16519,80.3344 24.5037,112.003 16.1677,31.8312 39.5003,55.6599 69.4936,71.8277 30.1722,16.1677 64.6709,24.1703 103.334,24.1703 43.3389,0 79.3341,-10.3366 108.002,-31.1644 28.6676,-20.8359 48.1697,-49.1701 58.669,-84.8399l-58.0021 -14.9966c-9.83239,24.5037 -24.1621,43.3308 -43.3308,56.3349 -19.1687,13.1668 -41.501,19.6648 -67.3384,19.6648 -37.4997,0 -68.4933,-13.3294 -92.8262,-39.9964 -24.3329,-26.667 -36.4994,-65.0044 -36.4994,-114.671 0,-49.8288 11.4996,-87.4993 34.4987,-112.995 22.9992,-25.504 52.6671,-38.3374 89.1665,-38.3374 29.3345,0 55.1638,8.49863 77.3335,25.6667 22.1615,16.9973 36.8328,40.1672 43.9977,69.3309z"
   id="glyph280" />
   <glyph
   unicode="ª"
   horiz-adv-x="370"
   d="M266.336 407.503c-39.6711,-29.0011 -81.3347,-43.5016 -124.836,-43.5016 -36.8328,0 -65.8339,9.99504 -87.3366,30.0014 -21.4946,20.1609 -32.1647,45.8275 -32.1647,77.1627 0,15.6716 2.66751,29.3345 7.83175,41.0049 5.17237,11.833 13.0041,22.1615 23.1699,31.327 10.3366,9.16551 23.5034,16.5012 39.8338,21.9988 11.4996,3.66783 27.4965,7.00222 48.3324,10.3366l71.8358 10.67c23.4953,4.66001 39.1669,7.83175 46.9986,9.83239 -0.333439,22.8284 -2.66751,37.9958 -6.83143,45.8275 -4.17205,7.83988 -12.1665,14.6713 -23.666,20.3398 -11.6704,5.66033 -27.0004,8.49863 -46.3399,8.49863 -25.6667,0 -44.998,-5.33502 -57.6606,-15.8343 -12.6707,-10.67 -20.5024,-25.6667 -23.5034,-45.1688l-66.9969 17.0054c3.83048,28.8303 18.1602,52.8298 42.9974,72.1611 24.6664,19.1687 60.0028,28.8384 106.001,28.8384 53.334,0 91.1671,-10.1658 113.329,-30.5056 21.8362,-20.6651 32.6689,-50.9999 32.6689,-90.6629l0 -120.168 -0.496092 -30.4975c0,-44.8354 6.83143,-75.5036 20.4943,-92.1674l-71.9984 0c-7.00222,12.996 -10.9954,27.4965 -11.6622,43.5016zm-7.33566 131.66c-17.168,-4.49736 -48.3324,-10.3285 -93.5012,-17.4934 -29.1637,-4.66815 -48.1697,-11.0035 -56.831,-19.1687 -9.16551,-8.33598 -13.671,-18.8352 -13.671,-31.1644 0,-13.3376 5.50581,-24.6664 16.5012,-34.1734 11.0035,-9.49895 26.667,-14.159 46.6652,-14.159 23.666,0 44.3393,6.32721 61.8326,18.9979 17.5015,12.6626 29.1719,28.3342 35.003,46.8279 2.33407,6.66878 3.66783,23.3407 4.00127,50.333z"
   id="glyph282" />
   <glyph
   unicode="«"
   horiz-adv-x="556"
   d="M166.004 257.496l127 -222.493 -71.0063 0 -157.001 222.493 157.001 222.501 72.0066 0 -128 -222.501zm188.995 0l130.001 -222.493 -73.9991 0 -154 222.493 154 222.501 73.9991 0 -130.001 -222.501z"
   id="glyph284" />
   <glyph
   unicode="¬"
   horiz-adv-x="583"
   d="M527.997 207.001l-82.9938 0 0 214.003 -389.001 0 0 81.9935 471.995 0 0 -295.996z"
   id="glyph286" />
   <glyph
   unicode="­"
   horiz-adv-x="332"
   d="M31.0017 215.003l0 87.9954 271.997 0 0 -87.9954 -271.997 0z"
   id="glyph288" />
   <glyph
   unicode="®"
   horiz-adv-x="736"
   d="M369.833 728.003c61.8326,0 122.169,-15.8343 181.171,-47.6737 58.8317,-31.6604 104.83,-77.1627 137.662,-136.165 32.8315,-59.1651 49.3327,-120.835 49.3327,-184.831 0,-63.4998 -16.1677,-124.666 -48.6658,-183.164 -32.3355,-58.669 -77.6669,-104.171 -136.165,-136.507 -58.4982,-32.4981 -119.664,-48.6658 -183.335,-48.6658 -63.8332,0 -124.999,16.1677 -183.497,48.6658 -58.4982,32.3355 -104,77.8377 -136.499,136.507 -32.5062,58.4982 -48.8366,119.664 -48.8366,183.164 0,63.9959 16.5012,125.666 49.5035,184.831 33.165,59.0024 79.1633,104.505 137.995,136.165 59.0024,31.8394 119.331,47.6737 181.334,47.6737zm0 -61.0031c-51.8294,0 -102.333,-13.3294 -151.333,-39.8338 -48.9993,-26.4962 -87.3366,-64.5001 -115.004,-113.833 -27.6592,-49.3327 -41.4928,-100.666 -41.4928,-154 0,-53.1632 13.6629,-104 40.826,-152.666 27.1712,-48.6658 65.167,-86.6698 114.004,-113.833 48.8366,-27.1712 99.8365,-40.8341 153,-40.8341 53.0005,0 104,13.6629 152.837,40.8341 48.8285,27.1631 86.8324,65.167 113.833,113.833 27.0004,48.6658 40.5006,99.5031 40.5006,152.666 0,53.334 -13.8337,104.667 -41.3383,154 -27.4965,49.3327 -65.8339,87.3366 -114.996,113.833 -49.1701,26.5043 -99.5031,39.8338 -150.836,39.8338zm-161.832 -510.999l0 395.995 136.336 0c46.6652,0 80.3263,-3.6597 101.162,-10.9954 20.9985,-7.33566 37.4997,-19.9982 49.9996,-38.3374 12.3372,-18.1602 18.5018,-37.4997 18.5018,-57.994 0,-28.8384 -10.3366,-54.1716 -31.1644,-75.5036 -20.6732,-21.5028 -48.1697,-33.4984 -82.5058,-36.1659 14.0044,-5.83112 25.3332,-12.8333 33.6692,-20.9985 15.9969,-15.5008 35.4991,-41.6717 58.669,-78.5046l48.3324 -77.4961 -77.6669 0 -35.3364 62.3287c-27.6673,49.1701 -50.1622,80.001 -67.1676,92.3382 -11.6622,9.00285 -28.6595,13.5002 -51.1626,13.3294l-37.6705 0 0 -167.996 -63.9959 0zm63.9959 222.998l77.6669 0c37.1663,0 62.4995,5.50581 75.9997,16.5012 13.5002,11.0035 20.3398,25.6667 20.3398,43.6643 0,11.6704 -3.33439,22.1696 -9.84052,31.3351 -6.498,9.33629 -15.4927,16.1677 -26.9923,20.6651 -11.6704,4.50549 -33.0023,6.83957 -64.3375,6.83957l-72.8361 0 0 -119.005z"
   id="glyph290" />
   <glyph
   unicode="¯"
   horiz-adv-x="552"
   d="M-14.9966 764.999l0 63.0037 581.998 0 0 -63.0037 -581.998 0z"
   id="glyph292" />
   <glyph
   unicode="°"
   horiz-adv-x="399"
   d="M62.0034 592.83c0,37.337 13.3294,69.1683 39.8338,95.6726 26.4962,26.3336 58.3274,39.5003 95.4937,39.5003 37.6705,0 69.6725,-13.1668 96.1687,-39.5003 26.3336,-26.5043 39.5003,-58.3356 39.5003,-95.6726 0,-37.4997 -13.3294,-69.4936 -39.8338,-95.9979 -26.4962,-26.4962 -58.4982,-39.8338 -95.8353,-39.8338 -37.1663,0 -68.9975,13.1668 -95.4937,39.5003 -26.5043,26.5043 -39.8338,58.4982 -39.8338,96.3314zm53.0005 -0.333439c0,-22.8284 7.9944,-42.1597 24.1621,-58.3274 16.1677,-16.1677 35.6698,-24.1703 58.669,-24.1703 22.4949,0 41.8344,8.00254 58.0021,24.1703 16.1596,16.1677 24.1621,35.4991 24.1621,58.3274 0,22.8365 -8.00254,42.1678 -24.1621,58.3356 -16.1677,16.1677 -35.5072,24.1703 -58.0021,24.1703 -22.9992,0 -42.5013,-8.00254 -58.669,-24.1703 -16.1677,-16.1677 -24.1621,-35.4991 -24.1621,-58.3356z"
   id="glyph294" />
   <glyph
   unicode="±"
   horiz-adv-x="548"
   d="M232 127l0 195.997 -194.997 0 0 82.0016 194.997 0 0 195.005 83.0019 0 0 -195.005 194.997 0 0 -82.0016 -194.997 0 0 -195.997 -83.0019 0zm277.999 -127l-472.996 0 0 82.0016 472.996 0 0 -82.0016z"
   id="glyph296" />
   <glyph
   unicode="²"
   horiz-adv-x="332"
   d="M12.0038 358c1.9925,18.5018 9.6616,37.1663 22.9992,55.6681 20.4943,28.0007 54.3343,59.0024 101.333,92.997 46.8279,34.0027 74.8286,55.8388 83.498,65.6712 12.1665,13.3294 18.1684,27.0004 18.1684,40.9967 0,15.6635 -5.66846,28.4968 -17.0054,38.5 -11.3288,10.1658 -28.0007,15.1674 -50.1622,15.1674 -21.332,0 -37.337,-3.83048 -47.8363,-11.4996 -10.4993,-7.6691 -19.1687,-22.5031 -26.0001,-44.5019l-73.9991 8.00254c9.33629,36.3286 25.6667,62.9956 48.8366,80.1636 23.3326,17.168 56.6602,25.8375 99.9992,25.8375 48.9993,0 84.9944,-9.66973 107.831,-29.0011 22.8365,-19.1687 34.3361,-42.8347 34.3361,-70.6647 0,-27.3339 -9.49895,-53.334 -28.6676,-78.0003 -14.5005,-18.1684 -47.6655,-46.1691 -99.3323,-83.8396 -27.0004,-19.8274 -45.9983,-35.6617 -57.3353,-47.4947l186.336 0 0 -58.0021 -302.999 0z"
   id="glyph298" />
   <glyph
   unicode="³"
   horiz-adv-x="332"
   d="M15.9969 454.998l71.0063 7.00222c6.498,-19.3313 14.9966,-32.4981 25.4959,-39.5003 14.0044,-9.66973 30.4975,-14.5005 49.8369,-14.5005 22.9992,0 41.6636,6.33534 55.6599,18.9979 14.0044,12.6707 21.0067,28.0007 21.0067,45.8357 0,16.3304 -5.83925,29.3345 -17.5015,39.0042 -11.6704,9.83239 -31.4978,14.6632 -59.832,14.6632 -3.83862,0 -9.16551,-0.333439 -16.0051,-1.00032 -4.49736,-0.333439 -7.9944,-0.496092 -10.6619,-0.496092l10.8327 53.9927c26.3336,-0.333439 45.6649,4.33471 57.8313,14.0044 12.1665,9.6616 18.331,21.332 18.331,35.1656 0,11.833 -4.8308,21.9988 -14.6632,30.3348 -9.83239,8.32784 -24.3329,12.4999 -43.6643,12.4999 -18.3391,0 -32.6689,-3.66783 -43.0055,-10.8327 -10.1658,-7.16487 -19.1605,-20.169 -26.667,-39.1669l-69.9978 10.9954c13.3376,34.6695 30.164,58.669 50.5038,72.5027 20.3316,13.6629 50.1622,20.5024 89.1665,20.5024 46.8279,0 80.9932,-8.66942 102.333,-25.8375 21.332,-17.3307 31.9939,-38.8335 31.9939,-64.8336 0,-17.6641 -5.66033,-33.4984 -17.1599,-47.3321 -11.5077,-13.9963 -28.1715,-23.9995 -49.8369,-30.164 28.8303,-7.16487 49.9996,-18.9979 63.6706,-35.4991 13.4921,-16.5012 20.3316,-35.8325 20.3316,-58.0021 0,-30.4975 -12.8333,-57.0018 -38.5,-79.4968 -25.6667,-22.5031 -62.3368,-33.84 -109.84,-33.84 -45.4941,0 -80.3263,9.00285 -104.326,27.1712 -23.9995,18.1684 -39.5003,44.1685 -46.3399,77.8296z"
   id="glyph300" />
   <glyph
   unicode="´"
   horiz-adv-x="332"
   d="M108.002 582.998l63.9959 137.003 116.004 0 -107.001 -137.003 -72.9988 0z"
   id="glyph302" />
   <glyph
   unicode="µ"
   horiz-adv-x="576"
   d="M497.003 519.002l0 -519.002 -78.0003 0 0 63.0037c-17.0054,-26.1709 -33.84,-44.1685 -50.333,-53.8382 -22.8365,-13.5002 -49.5035,-20.169 -79.8383,-20.169 -27.1631,0 -50.9999,5.33502 -71.9984,16.1677 -15.6635,8.16519 -32.8315,24.1703 -51.8294,48.3324l0 -252.495 -88.0035 0 0 718 88.0035 0 0 -219.167c0,-79.5049 4.16392,-131.001 12.6626,-154.667 8.49863,-23.5034 22.3323,-42.0052 41.3302,-55.6681 19.1687,-13.6629 41.0049,-20.5024 65.8339,-20.5024 26.0001,0 49.3327,7.17301 70.0059,21.5028 20.4943,14.1671 34.9948,32.6689 43.4935,55.1638 8.50676,22.6657 12.6707,73.503 12.6707,152.666l0 220.672 86.0029 0z"
   id="glyph304" />
   <glyph
   unicode="¶"
   horiz-adv-x="537"
   d="M196.997 -198.998l0 510.999c-60.8323,3.33439 -108.831,22.9992 -144.168,59.3359 -35.1656,36.1659 -52.8298,82.4977 -52.8298,138.833 0,62.6621 19.6648,112.662 58.8317,149.999 39.1669,37.1663 96.6648,55.8307 172.168,55.8307l309 0 0 -84.0022 -69.9978 0 0 -830.995 -83.0019 0 0 830.995 -109.002 0 0 -830.995 -81.0013 0z"
   id="glyph306" />
   <glyph
   unicode="·"
   horiz-adv-x="332"
   d="M115.996 311.001l0 99.9992 100.007 0 0 -99.9992 -100.007 0z"
   id="glyph308" />
   <glyph
   unicode="¸"
   horiz-adv-x="332"
   d="M105.668 -74.9994l25.3332 86.0029 64.9962 0 -16.1677 -52.0002c27.8381,-3.33439 48.8366,-11.833 63.0037,-25.6667 14.1671,-13.671 21.1693,-29.0011 21.1693,-45.8357 0,-24.3329 -11.833,-45.8357 -35.4991,-64.5001 -23.5034,-18.6645 -59.1732,-28.0007 -106.668,-28.0007 -26.8378,0 -50.5038,0 -70.8355,0l5.00159 62.0034c21.1612,-0.666878 36.4994,-1.00032 46.5025,-1.00032 30.8309,0 52.659,4.16392 65.1589,12.6626 9.50708,6.498 14.3379,14.3379 14.3379,23.8368 0,5.83112 -1.83798,10.9954 -5.66846,15.5008 -3.66783,4.49736 -10.4993,8.49863 -20.5024,11.6622 -10.1658,3.17174 -26.8296,5.00159 -50.1622,5.33502z"
   id="glyph310" />
   <glyph
   unicode="¹"
   horiz-adv-x="332"
   d="M161.002 358l0 271.167c-33.165,-26.3336 -69.5017,-44.8354 -109.002,-55.1638l0 59.9946c20.169,6.50613 42.5013,18.3391 67.1676,35.4991 24.6664,17.168 44.6646,35.6698 60.0028,55.5054l52.8298 0 0 -367.003 -70.9981 0z"
   id="glyph312" />
   <glyph
   unicode="º"
   horiz-adv-x="365"
   d="M182.497 728.003c47.3402,0 85.8402,-16.3385 115.671,-48.8366 29.8306,-32.6689 44.8354,-77.4961 44.8354,-134.831 0,-57.1726 -15.0048,-101.837 -45.0061,-134.498 -29.9932,-32.5062 -68.3306,-48.8366 -114.996,-48.8366 -47.3321,0 -86.0029,15.9969 -116.004,47.8363 -29.9932,31.9939 -44.998,76.4958 -44.998,133.498 0,58.669 15.0048,104.163 44.8354,136.832 29.8306,32.4981 68.3306,48.8366 115.663,48.8366zm0 -64.004c-26.4962,0 -47.999,-9.33629 -64.1667,-28.0007 -16.1596,-18.6645 -24.3329,-49.1619 -24.3329,-91.5006 0,-41.3302 8.33598,-71.4942 24.8371,-90.6629 16.5012,-19.1687 37.8331,-28.8384 63.6625,-28.8384 26.1709,0 47.5029,9.66973 63.8332,28.8384 16.5012,19.1687 24.6664,50.1622 24.6664,93.1678 0,39.9964 -8.32784,69.4936 -24.829,88.4996 -16.5012,18.9979 -37.8331,28.4968 -63.6706,28.4968z"
   id="glyph314" />
   <glyph
   unicode="»"
   horiz-adv-x="556"
   d="M386 257.496l-129 222.501 71.9984 0 158.001 -222.501 -157.001 -222.493 -71.9984 0 128 222.493zm-189.003 0l-130.001 222.501 74.0072 0 153.992 -222.501 -153.992 -222.493 -74.0072 0 130.001 222.493z"
   id="glyph316" />
   <glyph
   unicode="¼"
   horiz-adv-x="833"
   d="M122.998 -28.0007l537.666 756.004 76.6666 0 -537.666 -756.004 -76.6666 0zm39.0042 386l0 271.167c-33.1731,-26.3336 -69.5017,-44.8354 -109.002,-55.1638l0 59.9946c20.169,6.50613 42.5013,18.3391 67.1676,35.4991 24.6664,17.168 44.6646,35.6698 59.9946,55.5054l52.8379 0 0 -367.003 -70.9981 0zm537 -372.996l0 74.9994 -187.002 0 0 60.3281 197.664 231.667 59.3359 0 0 -238.994 50.9999 0 0 -53.0005 -50.9999 0 0 -74.9994 -69.9978 0zm0 128l0 128.496 -112.336 -128.496 112.336 0z"
   id="glyph318" />
   <glyph
   unicode="½"
   horiz-adv-x="833"
   d="M111.336 -28.0007l537.666 756.004 76.6666 0 -537.666 -756.004 -76.6666 0zm50.6665 386l0 271.167c-33.1731,-26.3336 -69.5017,-44.8354 -109.002,-55.1638l0 59.9946c20.169,6.50613 42.5013,18.3391 67.1676,35.4991 24.6664,17.168 44.6646,35.6698 59.9946,55.5054l52.8379 0 0 -367.003 -70.9981 0zm350.997 -372.996c2.00063,18.331 9.83239,36.662 23.666,55.3265 20.5024,28.3342 54.1635,59.3359 100.837,93.3385 46.8279,33.8319 74.666,55.8307 83.498,65.9965 11.9957,13.3376 17.9976,27.0004 17.9976,41.0049 0,15.6635 -5.66846,28.4968 -16.8346,38.5 -11.1661,9.83239 -27.83,14.834 -50.333,14.834 -21.332,0 -37.3289,-3.66783 -47.8282,-11.1743 -10.4993,-7.49831 -19.1687,-21.8281 -26.0001,-42.8266l-73.9991 7.16487c9.32816,35.9952 25.8293,62.4995 49.1619,79.4968 23.3326,16.8346 56.6684,25.3332 99.6657,25.3332 48.9993,0 85.0026,-9.6616 107.839,-29.0011 22.8284,-19.1605 34.328,-42.8266 34.328,-70.4939 0,-27.5047 -9.49895,-53.5048 -28.6676,-78.0003 -14.5005,-18.3391 -47.6655,-46.5025 -99.1615,-84.5065 -27.1712,-19.8274 -46.3318,-35.4991 -57.6687,-46.9986l186.498 0 0 -57.994 -302.999 0z"
   id="glyph320" />
   <glyph
   unicode="¾"
   horiz-adv-x="833"
   d="M122.998 -29.0011l537.666 757.004 76.6666 0 -537.666 -757.004 -76.6666 0zm-107.001 484.999l71.0063 7.33566c6.498,-19.5021 14.9966,-32.6689 25.4959,-39.8338 14.0044,-9.66973 30.4975,-14.5005 49.8369,-14.5005 22.9992,0 41.6636,6.33534 55.6599,18.9979 14.0044,12.6707 21.0067,28.0007 21.0067,45.8357 0,16.3304 -5.83925,29.3345 -17.5015,38.9961 -11.6704,9.84052 -31.1644,14.6713 -58.3356,14.6713 -16.1677,-1.00032 -25.4959,-1.50454 -28.1634,-1.50454l10.8327 54.0009c26.3336,-0.333439 45.6649,4.33471 57.8313,14.0044 12.1665,9.6616 18.331,21.332 18.331,35.1656 0,11.833 -4.8308,21.9988 -14.6632,30.3348 -9.83239,8.32784 -24.3329,12.4999 -43.6643,12.4999 -18.3391,0 -32.6689,-3.66783 -43.0055,-11.0035 -10.1658,-7.32753 -19.1605,-20.6651 -26.667,-39.9964l-69.9978 11.9957c13.3376,34.6695 30.164,58.669 50.5038,72.5027 20.3316,13.6629 50.1622,20.5024 89.1665,20.5024 46.8279,0 80.9932,-8.66942 102.333,-25.8375 21.332,-17.3307 31.9939,-38.8335 31.9939,-64.8336 0,-17.6641 -5.66033,-33.4984 -17.1599,-47.3321 -11.5077,-13.9963 -28.1715,-23.9995 -49.8369,-30.164 28.8303,-7.16487 49.9996,-19.006 63.6706,-35.4991 13.4921,-16.5012 20.3316,-35.8325 20.3316,-58.0021 0,-30.4975 -12.8333,-57.0018 -38.5,-79.5049 -25.6667,-22.4949 -62.3368,-33.8319 -109.84,-33.8319 -45.4941,0 -80.3263,9.00285 -104.326,27.1712 -23.9995,18.1684 -39.5003,44.1685 -46.3399,77.8296zm682.005 -470.995l0 74.9994 -186.002 0 0 60.1654 196.835 231.83 60.1654 0 0 -238.994 50.9999 0 0 -53.0005 -50.9999 0 0 -74.9994 -70.9981 0zm0 128l0 128.496 -111.003 -128.496 111.003 0z"
   id="glyph322" />
   <glyph
   unicode="¿"
   horiz-adv-x="610"
   d="M356.999 519.002l0 -99.9992 -89.996 0 0 99.9992 89.996 0zm-6.0019 -175.999c0.333439,-11.0035 0.504225,-19.3395 0.504225,-24.8371 0,-35.8325 -4.83893,-66.33 -14.6713,-91.3298 -7.16487,-19.006 -18.6645,-38.0039 -34.4987,-57.1726 -11.6622,-13.9963 -32.6689,-34.328 -62.9956,-60.9949 -30.3348,-26.8378 -49.9996,-48.1697 -59.0024,-64.1667 -8.83207,-16.1677 -13.3376,-33.6692 -13.3376,-52.6671 0,-34.8322 13.3376,-65.0044 40.1672,-91.0045 26.667,-25.8293 59.5067,-38.8335 98.3401,-38.8335 37.3289,0 68.4933,11.833 93.8265,35.4991 25.3332,23.6742 41.8344,60.507 49.6662,110.507l90.0041 -11.0035c-8.16519,-66.1673 -32.3355,-117.33 -72.6653,-153.162 -40.1672,-35.8406 -93.1678,-53.8382 -159.002,-53.8382 -70.502,0 -126.504,19.1687 -167.996,57.3353 -41.501,38.1666 -62.3368,84.4983 -62.3368,138.67 0,31.6604 7.16487,60.6615 21.6654,86.8324 14.5005,26.1628 42.9974,57.994 85.4987,95.8271 28.8384,25.6667 47.8363,44.6727 56.5057,56.6684 8.83207,12.0038 15.1674,25.8375 19.3313,41.501 4.00127,15.6635 6.33534,40.9967 7.00222,76.1705l83.9941 0z"
   id="glyph324" />
   <glyph
   unicode="À"
   horiz-adv-x="667"
   d="M-1.49641 0l274.664 715.999 104.163 0 291.499 -715.999 -107.831 0 -82.8311 217.004 -301.502 0 -77.6669 -217.004 -100.495 0zm206 294.004l243.996 0 -74.666 198.494c-22.5031,60.3362 -39.5003,110.165 -51.3333,149.503 -9.83239,-46.6652 -22.9992,-92.5009 -39.5003,-137.832l-78.4964 -210.164zm189.499 465.993l-71.0063 0 -112.995 137.003 117.997 0 66.0047 -137.003z"
   id="glyph326" />
   <glyph
   unicode="Á"
   horiz-adv-x="667"
   d="M-1.49641 0l274.664 715.999 104.163 0 291.499 -715.999 -107.831 0 -82.8311 217.004 -301.502 0 -77.6669 -217.004 -100.495 0zm206 294.004l243.996 0 -74.666 198.494c-22.5031,60.3362 -39.5003,110.165 -51.3333,149.503 -9.83239,-46.6652 -22.9992,-92.5009 -39.5003,-137.832l-78.4964 -210.164zm45.4941 465.993l64.004 137.003 115.996 0 -107.001 -137.003 -72.9988 0z"
   id="glyph328" />
   <glyph
   unicode="Â"
   horiz-adv-x="667"
   d="M-1.49641 0l274.664 715.999 104.163 0 291.499 -715.999 -107.831 0 -82.8311 217.004 -301.502 0 -77.6669 -217.004 -100.495 0zm206 294.004l243.996 0 -74.666 198.494c-22.5031,60.3362 -39.5003,110.165 -51.3333,149.503 -9.83239,-46.6652 -22.9992,-92.5009 -39.5003,-137.832l-78.4964 -210.164zm119.493 548.995l-54.497 -83.0019 -99.9992 0 104.497 137.003 93.0051 0 111.499 -137.003 -99.9992 0 -54.5051 83.0019z"
   id="glyph330" />
   <glyph
   unicode="Ã"
   horiz-adv-x="667"
   d="M-1.49641 0l274.664 715.999 104.163 0 291.499 -715.999 -107.831 0 -82.8311 217.004 -301.502 0 -77.6669 -217.004 -100.495 0zm206 294.004l243.996 0 -74.666 198.494c-22.5031,60.3362 -39.5003,110.165 -51.3333,149.503 -9.83239,-46.6652 -22.9992,-92.5009 -39.5003,-137.832l-78.4964 -210.164zm-41.501 464.993c-0.333439,33.5066 8.99472,60.1736 27.83,80.1718 18.5018,19.8274 42.3305,29.8306 71.3316,29.8306 20.169,0 47.6655,-8.49863 82.335,-25.6667 19.1687,-9.49895 34.4987,-14.3297 45.8357,-14.3297 10.4993,0 18.5018,2.83017 23.9995,8.49863 5.49768,5.49768 9.32816,16.8346 11.6622,33.4984l63.0037 0c-1.00032,-37.0036 -10.3366,-64.6628 -28.0007,-83.1646 -17.6641,-18.5018 -39.9964,-27.8381 -67.3303,-27.8381 -20.3398,0 -47.3402,9.17364 -80.6679,27.3339 -21.8362,11.833 -37.8331,17.6723 -47.999,17.6723 -11.0035,0 -20.0063,-3.83862 -26.667,-11.6704 -7.17301,-7.6691 -10.67,-19.1687 -10.3366,-34.3361l-64.9962 0z"
   id="glyph332" />
   <glyph
   unicode="Ä"
   horiz-adv-x="667"
   d="M-1.49641 0l274.664 715.999 104.163 0 291.499 -715.999 -107.831 0 -82.8311 217.004 -301.502 0 -77.6669 -217.004 -100.495 0zm206 294.004l243.996 0 -74.666 198.494c-22.5031,60.3362 -39.5003,110.165 -51.3333,149.503 -9.83239,-46.6652 -22.9992,-92.5009 -39.5003,-137.832l-78.4964 -210.164zm-15.5008 465.993l0 99.9992 91.9966 0 0 -99.9992 -91.9966 0zm182.001 0l0 99.9992 91.9966 0 0 -99.9992 -91.9966 0z"
   id="glyph334" />
   <glyph
   unicode="Å"
   horiz-adv-x="667"
   d="M-1.49641 0l274.664 715.999 104.163 0 291.499 -715.999 -107.831 0 -82.8311 217.004 -301.502 0 -77.6669 -217.004 -100.495 0zm206 294.004l243.996 0 -74.666 198.494c-22.5031,60.3362 -39.5003,110.165 -51.3333,149.503 -9.83239,-46.6652 -22.9992,-92.5009 -39.5003,-137.832l-78.4964 -210.164zm30.4975 476.493c0,23.8368 8.66128,44.3393 26.0001,61.67 17.3307,17.168 37.8331,25.8375 61.4992,25.8375 23.9995,0 44.5019,-8.66942 61.67,-26.1709 17.1599,-17.5015 25.8293,-38.5 25.8293,-63.329 0,-25.1706 -8.66942,-46.3399 -25.8293,-63.4998 -17.168,-17.3388 -37.5078,-26.0001 -61.1739,-26.0001 -24.3329,0 -44.998,8.66128 -62.1661,26.1628 -17.168,17.5015 -25.8293,39.1669 -25.8293,65.3297zm36.9955 -0.496092c0,-15.3301 5.17237,-28.0007 15.3382,-38.5 10.1658,-10.3366 22.1615,-15.5008 36.1659,-15.5008 13.9963,0 26.0001,5.16424 36.1659,15.5008 10.1658,10.4993 15.3301,22.9992 15.3301,37.4997 0,14.6632 -4.99345,27.0004 -14.9966,37.4997 -10.1658,10.3366 -22.1696,15.5008 -36.4994,15.5008 -14.0044,0 -26.0001,-5.16424 -36.1659,-15.3301 -10.1658,-10.174 -15.3382,-22.5031 -15.3382,-36.6702z"
   id="glyph336" />
   <glyph
   unicode="Æ"
   horiz-adv-x="1000"
   d="M0.496092 0l344.174 715.999 588.333 0 0 -84.0022 -361.001 0 0 -220.997 336.001 0 0 -84.0022 -336.001 0 0 -242.996 373.997 0 0 -84.0022 -469.002 0 0 207.001 -274.494 0 -99.5031 -207.001 -102.504 0zm242.337 291.003l234.164 0 0 340.994 -70.1605 0 -164.003 -340.994z"
   id="glyph338" />
   <glyph
   unicode="Ç"
   horiz-adv-x="722"
   d="M586.999 251.169l94.9976 -23.9995c-19.8274,-77.8377 -55.4973,-137.003 -106.993,-177.837 -51.5041,-40.8341 -114.5,-61.3365 -189.003,-61.3365 -77,0 -139.67,15.6716 -188.003,47.1694 -48.3324,31.3351 -84.9944,76.8374 -110.165,136.336 -25.1624,59.6612 -37.8331,123.494 -37.8331,191.833 0,74.4952 14.1671,139.5 42.6639,194.997 28.505,55.5054 69.0056,97.6651 121.502,126.504 52.5045,28.8303 110.336,43.1682 173.331,43.1682 71.6731,0 131.839,-18.1684 180.504,-54.6677 48.8285,-36.4994 82.8311,-87.6701 102,-153.667l-93.0051 -21.9988c-16.493,52.0002 -40.6633,89.996 -72.1611,113.662 -31.4978,23.8368 -71.1689,35.6698 -119.005,35.6698 -54.8304,0 -100.829,-13.1668 -137.662,-39.5003 -36.8328,-26.3336 -62.8329,-61.8326 -77.6669,-106.172 -15.0048,-44.4938 -22.5031,-90.3295 -22.5031,-137.499 0,-60.8323 8.83207,-113.995 26.5043,-159.327 17.6641,-45.5022 45.1607,-79.3341 82.4977,-101.837 37.337,-22.5031 77.6669,-33.6692 121.169,-33.6692 53.0005,0 97.6651,15.3382 134.335,45.8357 36.662,30.6683 61.4992,75.9997 74.4952,136.336zm-277.332 -337.172l25.3332 86.0029 64.9962 0 -16.1596 -52.0002c27.83,-3.33439 48.8285,-11.833 62.9956,-25.6667 14.1671,-13.6629 21.1693,-29.0011 21.1693,-45.8357 0,-24.3329 -11.833,-45.8275 -35.4991,-64.5001 -23.5034,-18.6645 -59.1732,-28.0007 -106.668,-28.0007 -26.8378,0 -50.5038,0 -70.8355,0l5.00159 62.0034c21.1693,-0.666878 36.4994,-1.00032 46.5025,-1.00032 30.8309,0 52.659,4.16392 65.167,12.6707 9.49895,6.498 14.3297,14.3297 14.3297,23.8287 0,5.83112 -1.82985,11.0035 -5.66846,15.5008 -3.66783,4.49736 -10.4993,8.49863 -20.5024,11.6704 -10.1658,3.1636 -26.8296,4.99345 -50.1622,5.32689z"
   id="glyph340" />
   <glyph
   unicode="È"
   horiz-adv-x="667"
   d="M79.0007 0l0 715.999 517.001 0 0 -84.0022 -422.004 0 0 -219.997 395.003 0 0 -84.0022 -395.003 0 0 -243.996 439.001 0 0 -84.0022 -533.999 0zm336.001 759.997l-70.9981 0 -113.003 137.003 117.997 0 66.0047 -137.003z"
   id="glyph342" />
   <glyph
   unicode="É"
   horiz-adv-x="667"
   d="M79.0007 0l0 715.999 517.001 0 0 -84.0022 -422.004 0 0 -219.997 395.003 0 0 -84.0022 -395.003 0 0 -243.996 439.001 0 0 -84.0022 -533.999 0zm194.997 759.997l64.004 137.003 115.996 0 -107.001 -137.003 -72.9988 0z"
   id="glyph344" />
   <glyph
   unicode="Ê"
   horiz-adv-x="667"
   d="M79.0007 0l0 715.999 517.001 0 0 -84.0022 -422.004 0 0 -219.997 395.003 0 0 -84.0022 -395.003 0 0 -243.996 439.001 0 0 -84.0022 -533.999 0zm267.003 842.999l-54.5051 -83.0019 -99.9992 0 104.497 137.003 93.0051 0 111.499 -137.003 -99.9992 0 -54.497 83.0019z"
   id="glyph346" />
   <glyph
   unicode="Ë"
   horiz-adv-x="667"
   d="M79.0007 0l0 715.999 517.001 0 0 -84.0022 -422.004 0 0 -219.997 395.003 0 0 -84.0022 -395.003 0 0 -243.996 439.001 0 0 -84.0022 -533.999 0zm135.002 759.997l0 99.9992 91.9966 0 0 -99.9992 -91.9966 0zm182.001 0l0 99.9992 91.9966 0 0 -99.9992 -91.9966 0z"
   id="glyph348" />
   <glyph
   unicode="Ì"
   horiz-adv-x="277"
   d="M92.997 0l0 715.999 95.0057 0 0 -715.999 -95.0057 0zm122.006 759.997l-71.0063 0 -112.995 137.003 117.997 0 66.0047 -137.003z"
   id="glyph350" />
   <glyph
   unicode="Í"
   horiz-adv-x="277"
   d="M92.997 0l0 715.999 95.0057 0 0 -715.999 -95.0057 0zm-28.9929 759.997l63.9959 137.003 115.996 0 -106.993 -137.003 -72.9988 0z"
   id="glyph352" />
   <glyph
   unicode="Î"
   horiz-adv-x="277"
   d="M92.997 0l0 715.999 95.0057 0 0 -715.999 -95.0057 0zm47.0068 842.999l-54.5051 -83.0019 -99.9992 0 104.497 137.003 93.0051 0 111.499 -137.003 -99.9992 0 -54.497 83.0019z"
   id="glyph354" />
   <glyph
   unicode="Ï"
   horiz-adv-x="277"
   d="M92.997 0l0 715.999 95.0057 0 0 -715.999 -95.0057 0zm-86.9951 759.997l0 99.9992 91.9966 0 0 -99.9992 -91.9966 0zm182.001 0l0 99.9992 91.9966 0 0 -99.9992 -91.9966 0z"
   id="glyph356" />
   <glyph
   unicode="Ð"
   horiz-adv-x="722"
   d="M77 0l0 325.998 -79.0007 0 0 64.004 79.0007 0 0 325.998 246.664 0c55.3346,0 97.6732,-3.33439 126.837,-10.1658 40.9967,-9.49895 75.9997,-26.667 104.83,-51.3333 37.6705,-32.002 66.0047,-72.6653 84.6691,-122.331 18.6645,-49.6662 28.0007,-106.505 28.0007,-170.339 0,-72.828 -11.4996,-135.661 -34.6695,-188.165 -22.9992,-52.6671 -50.6665,-90.8337 -82.8311,-114.5 -32.1647,-23.8287 -69.3309,-40.8341 -111.165,-50.8291 -23.1699,-5.50581 -57.8313,-8.33598 -104.334,-8.33598l-258.001 0zm94.9976 84.0022l152.333 0c47.3402,0 84.3357,4.33471 110.84,13.1668 26.6589,8.83207 47.6655,21.1612 63.329,36.662 22.3323,22.6657 39.8338,52.8379 52.5045,90.671 12.6626,37.8331 18.9979,83.9941 18.9979,138.328 0,56.1723 -6.16456,101 -18.6726,134.669 -12.4999,33.4984 -28.8303,60.4989 -48.9993,80.6679 -19.9982,20.169 -42.4931,34.3361 -67.1595,42.1678 -24.6745,7.83175 -62.3368,11.6622 -113.337,11.6622l-149.836 0 0 -241.995 197.006 0 0 -64.004 -197.006 0 0 -241.995z"
   id="glyph358" />
   <glyph
   unicode="Ñ"
   horiz-adv-x="722"
   d="M75.9997 0l0 715.999 97.3317 0 375.672 -561.999 0 561.999 90.9963 0 0 -715.999 -97.3317 0 -375.672 561.999 0 -561.999 -90.9963 0zm133.002 758.997c-0.333439,33.5066 8.99472,60.1736 27.83,80.1718 18.5018,19.8274 42.3386,29.8306 71.3316,29.8306 20.169,0 47.6737,-8.49863 82.335,-25.6667 19.1687,-9.49895 34.4987,-14.3297 45.8357,-14.3297 10.4993,0 18.5018,2.83017 23.9995,8.49863 5.49768,5.49768 9.33629,16.8346 11.6704,33.4984l62.9956 0c-1.00032,-37.0036 -10.3285,-64.6628 -28.0007,-83.1646 -17.6641,-18.5018 -39.9964,-27.8381 -67.3303,-27.8381 -20.3316,0 -47.3321,9.17364 -80.6679,27.3339 -21.8362,11.833 -37.8331,17.6723 -47.999,17.6723 -11.0035,0 -19.9982,-3.83862 -26.667,-11.6704 -7.16487,-7.6691 -10.67,-19.1687 -10.3366,-34.3361l-64.9962 0z"
   id="glyph360" />
   <glyph
   unicode="Ò"
   horiz-adv-x="777"
   d="M47.999 348.501c0,118.664 32.002,211.669 95.8353,278.836 63.8332,67.1595 146.168,100.666 247.168,100.666 66.1673,0 125.666,-15.8343 178.829,-47.3402 53.0005,-31.4978 93.5012,-75.4955 121.339,-131.993 27.83,-56.3349 41.8263,-120.339 41.8263,-191.833 0,-72.5027 -14.6632,-137.507 -43.9977,-194.671 -29.3345,-57.3353 -70.8355,-100.666 -124.503,-130.001 -53.8301,-29.4972 -111.832,-44.1685 -173.998,-44.1685 -67.5011,0 -127.666,16.3385 -180.83,48.8366 -53.0005,32.4981 -93.3385,76.8374 -120.664,133.164 -27.3339,56.1723 -41.0049,115.671 -41.0049,178.504zm97.9986 -1.6672c0,-86.1655 23.1699,-154 69.5017,-203.504 46.3318,-49.4954 104.505,-74.3325 174.502,-74.3325 71.3316,0 129.83,24.9998 175.999,74.9994 45.9983,49.9996 68.9975,121.006 68.9975,213.002 0,58.1648 -9.83239,109.002 -29.4972,152.333 -19.6648,43.3308 -48.5032,77 -86.3363,100.837 -37.9958,23.8287 -80.4971,35.8325 -127.666,35.8325 -66.9969,0 -124.666,-22.9992 -172.998,-69.0056 -48.3324,-45.9983 -72.5027,-122.665 -72.5027,-230.162zm316.003 413.164l-70.9981 0 -113.003 137.003 118.005 0 65.9965 -137.003z"
   id="glyph362" />
   <glyph
   unicode="Ó"
   horiz-adv-x="777"
   d="M47.999 348.501c0,118.664 32.002,211.669 95.8353,278.836 63.8332,67.1595 146.168,100.666 247.168,100.666 66.1673,0 125.666,-15.8343 178.829,-47.3402 53.0005,-31.4978 93.5012,-75.4955 121.339,-131.993 27.83,-56.3349 41.8263,-120.339 41.8263,-191.833 0,-72.5027 -14.6632,-137.507 -43.9977,-194.671 -29.3345,-57.3353 -70.8355,-100.666 -124.503,-130.001 -53.8301,-29.4972 -111.832,-44.1685 -173.998,-44.1685 -67.5011,0 -127.666,16.3385 -180.83,48.8366 -53.0005,32.4981 -93.3385,76.8374 -120.664,133.164 -27.3339,56.1723 -41.0049,115.671 -41.0049,178.504zm97.9986 -1.6672c0,-86.1655 23.1699,-154 69.5017,-203.504 46.3318,-49.4954 104.505,-74.3325 174.502,-74.3325 71.3316,0 129.83,24.9998 175.999,74.9994 45.9983,49.9996 68.9975,121.006 68.9975,213.002 0,58.1648 -9.83239,109.002 -29.4972,152.333 -19.6648,43.3308 -48.5032,77 -86.3363,100.837 -37.9958,23.8287 -80.4971,35.8325 -127.666,35.8325 -66.9969,0 -124.666,-22.9992 -172.998,-69.0056 -48.3324,-45.9983 -72.5027,-122.665 -72.5027,-230.162zm172.006 413.164l63.9959 137.003 116.004 0 -107.001 -137.003 -72.9988 0z"
   id="glyph364" />
   <glyph
   unicode="Ô"
   horiz-adv-x="777"
   d="M47.999 348.501c0,118.664 32.002,211.669 95.8353,278.836 63.8332,67.1595 146.168,100.666 247.168,100.666 66.1673,0 125.666,-15.8343 178.829,-47.3402 53.0005,-31.4978 93.5012,-75.4955 121.339,-131.993 27.83,-56.3349 41.8263,-120.339 41.8263,-191.833 0,-72.5027 -14.6632,-137.507 -43.9977,-194.671 -29.3345,-57.3353 -70.8355,-100.666 -124.503,-130.001 -53.8301,-29.4972 -111.832,-44.1685 -173.998,-44.1685 -67.5011,0 -127.666,16.3385 -180.83,48.8366 -53.0005,32.4981 -93.3385,76.8374 -120.664,133.164 -27.3339,56.1723 -41.0049,115.671 -41.0049,178.504zm97.9986 -1.6672c0,-86.1655 23.1699,-154 69.5017,-203.504 46.3318,-49.4954 104.505,-74.3325 174.502,-74.3325 71.3316,0 129.83,24.9998 175.999,74.9994 45.9983,49.9996 68.9975,121.006 68.9975,213.002 0,58.1648 -9.83239,109.002 -29.4972,152.333 -19.6648,43.3308 -48.5032,77 -86.3363,100.837 -37.9958,23.8287 -80.4971,35.8325 -127.666,35.8325 -66.9969,0 -124.666,-22.9992 -172.998,-69.0056 -48.3324,-45.9983 -72.5027,-122.665 -72.5027,-230.162zm244.004 496.165l-54.5051 -83.0019 -99.9992 0 104.505 137.003 92.997 0 111.499 -137.003 -99.9992 0 -54.497 83.0019z"
   id="glyph366" />
   <glyph
   unicode="Õ"
   horiz-adv-x="777"
   d="M47.999 348.501c0,118.664 32.002,211.669 95.8353,278.836 63.8332,67.1595 146.168,100.666 247.168,100.666 66.1673,0 125.666,-15.8343 178.829,-47.3402 53.0005,-31.4978 93.5012,-75.4955 121.339,-131.993 27.83,-56.3349 41.8263,-120.339 41.8263,-191.833 0,-72.5027 -14.6632,-137.507 -43.9977,-194.671 -29.3345,-57.3353 -70.8355,-100.666 -124.503,-130.001 -53.8301,-29.4972 -111.832,-44.1685 -173.998,-44.1685 -67.5011,0 -127.666,16.3385 -180.83,48.8366 -53.0005,32.4981 -93.3385,76.8374 -120.664,133.164 -27.3339,56.1723 -41.0049,115.671 -41.0049,178.504zm97.9986 -1.6672c0,-86.1655 23.1699,-154 69.5017,-203.504 46.3318,-49.4954 104.505,-74.3325 174.502,-74.3325 71.3316,0 129.83,24.9998 175.999,74.9994 45.9983,49.9996 68.9975,121.006 68.9975,213.002 0,58.1648 -9.83239,109.002 -29.4972,152.333 -19.6648,43.3308 -48.5032,77 -86.3363,100.837 -37.9958,23.8287 -80.4971,35.8325 -127.666,35.8325 -66.9969,0 -124.666,-22.9992 -172.998,-69.0056 -48.3324,-45.9983 -72.5027,-122.665 -72.5027,-230.162zm80.001 412.163c-0.333439,33.5066 9.00285,60.1736 27.8381,80.1718 18.4937,19.8274 42.3305,29.8306 71.3316,29.8306 20.169,0 47.6655,-8.49863 82.335,-25.6667 19.1605,-9.49895 34.4987,-14.3297 45.8275,-14.3297 10.4993,0 18.5018,2.83017 23.9995,8.49863 5.50581,5.49768 9.33629,16.8346 11.6704,33.4984l62.9956 0c-0.992185,-37.0036 -10.3285,-64.6628 -27.9926,-83.1646 -17.6723,-18.5018 -40.0046,-27.8381 -67.3384,-27.8381 -20.3316,0 -47.3321,9.17364 -80.6679,27.3339 -21.8281,11.833 -37.8331,17.6723 -47.999,17.6723 -10.9954,0 -19.9982,-3.83862 -26.667,-11.6704 -7.16487,-7.6691 -10.6619,-19.1687 -10.3285,-34.3361l-65.0044 0z"
   id="glyph368" />
   <glyph
   unicode="Ö"
   horiz-adv-x="777"
   d="M47.999 348.501c0,118.664 32.002,211.669 95.8353,278.836 63.8332,67.1595 146.168,100.666 247.168,100.666 66.1673,0 125.666,-15.8343 178.829,-47.3402 53.0005,-31.4978 93.5012,-75.4955 121.339,-131.993 27.83,-56.3349 41.8263,-120.339 41.8263,-191.833 0,-72.5027 -14.6632,-137.507 -43.9977,-194.671 -29.3345,-57.3353 -70.8355,-100.666 -124.503,-130.001 -53.8301,-29.4972 -111.832,-44.1685 -173.998,-44.1685 -67.5011,0 -127.666,16.3385 -180.83,48.8366 -53.0005,32.4981 -93.3385,76.8374 -120.664,133.164 -27.3339,56.1723 -41.0049,115.671 -41.0049,178.504zm97.9986 -1.6672c0,-86.1655 23.1699,-154 69.5017,-203.504 46.3318,-49.4954 104.505,-74.3325 174.502,-74.3325 71.3316,0 129.83,24.9998 175.999,74.9994 45.9983,49.9996 68.9975,121.006 68.9975,213.002 0,58.1648 -9.83239,109.002 -29.4972,152.333 -19.6648,43.3308 -48.5032,77 -86.3363,100.837 -37.9958,23.8287 -80.4971,35.8325 -127.666,35.8325 -66.9969,0 -124.666,-22.9992 -172.998,-69.0056 -48.3324,-45.9983 -72.5027,-122.665 -72.5027,-230.162zm112.003 413.164l0 99.9992 91.9966 0 0 -99.9992 -91.9966 0zm182.001 0l0 99.9992 91.9966 0 0 -99.9992 -91.9966 0z"
   id="glyph370" />
   <glyph
   unicode="×"
   horiz-adv-x="583"
   d="M78.6672 199.665l153.829 153.837 -153.333 153.333 59.5067 59.4985 153.333 -153.171 152.829 152.837 58.669 -59.1651 -152.504 -152.837 153.333 -153.333 -59.4985 -59.4985 -153.333 153.333 -153.829 -153.829 -59.0024 58.9943z"
   id="glyph372" />
   <glyph
   unicode="Ø"
   horiz-adv-x="777"
   d="M610.169 650.499l81.8308 91.5006 48.1697 -40.9967 -85.8402 -96.1687c27.8381,-41.6636 46.5025,-78.0003 56.3349,-109.335 12.8333,-40.9967 19.3395,-86.9951 19.3395,-137.662 0,-73.3403 -14.834,-138.67 -44.3393,-196.005 -29.6679,-57.3353 -71.1608,-100.495 -124.666,-129.83 -53.4966,-29.3345 -110.336,-44.0058 -170.501,-44.0058 -44.8272,0 -85.4987,6.33534 -121.827,19.006 -28.0007,9.83239 -60.6696,28.6676 -98.1693,56.3349l-82.335 -92.3382 -48.1697 41.1675 86.1737 96.5021c-32.002,48.4951 -53.334,89.8334 -64.004,124.161 -10.8327,34.3361 -16.1677,75.6663 -16.1677,123.836 0,73.503 14.6713,139.003 43.9977,196.331 29.3345,57.506 70.3394,101 123.34,130.667 52.8298,29.5053 111.661,44.3393 176.495,44.3393 43.6724,0 81.839,-5.83925 114.5,-17.3388 32.8397,-11.4996 68.0053,-31.4978 105.838,-60.1654zm-59.1651 -66.1673c-30.839,24.1703 -57.506,40.6714 -80.5052,49.5035 -22.8284,8.83207 -49.6662,13.1668 -80.4971,13.1668 -71.1689,0 -130.001,-24.1703 -176.332,-72.5027 -46.5025,-48.3324 -69.6725,-120.502 -69.6725,-216.5 0,-37.6623 3.50518,-71.3316 10.67,-100.503 5.16424,-21.8281 15.9969,-48.6658 32.4981,-80.4971l363.839 407.332zm39.9964 -50.333l-362.497 -405.828c25.1624,-20.5024 48.3324,-34.8403 69.3309,-43.0055 27.6673,-10.8327 57.4979,-16.1677 89.6626,-16.1677 70.8355,0 129.171,24.9998 175.34,75.1702 46.161,50.1622 69.1601,120.502 69.1601,210.831 0,67.8345 -13.6629,127.333 -40.9967,179z"
   id="glyph374" />
   <glyph
   unicode="Ù"
   horiz-adv-x="722"
   d="M546.002 715.999l94.9976 0 0 -413.497c0,-71.9984 -8.16519,-129.171 -24.3329,-171.502 -16.3304,-42.1678 -45.6649,-76.6666 -88.0035,-103.171 -42.4931,-26.4962 -97.9986,-39.8338 -166.996,-39.8338 -66.8342,0 -121.665,11.5077 -164.166,34.6695 -42.6721,23.1699 -72.9988,56.4976 -91.1671,100.333 -18.1684,43.835 -27.3339,103.667 -27.3339,179.504l0 413.497 94.9976 0 0 -413.334c0,-62.1661 5.83112,-108.164 17.3388,-137.499 11.4996,-29.4972 31.1644,-52.3337 59.3278,-68.168 28.0007,-15.9969 62.3368,-23.9995 102.837,-23.9995 69.3309,0 118.834,15.8343 148.332,47.3321 29.4972,31.6686 44.1685,92.3382 44.1685,182.334l0 413.334zm-122.006 43.9977l-70.9981 0 -112.995 137.003 117.997 0 65.9965 -137.003z"
   id="glyph376" />
   <glyph
   unicode="Ú"
   horiz-adv-x="722"
   d="M546.002 715.999l94.9976 0 0 -413.497c0,-71.9984 -8.16519,-129.171 -24.3329,-171.502 -16.3304,-42.1678 -45.6649,-76.6666 -88.0035,-103.171 -42.4931,-26.4962 -97.9986,-39.8338 -166.996,-39.8338 -66.8342,0 -121.665,11.5077 -164.166,34.6695 -42.6721,23.1699 -72.9988,56.4976 -91.1671,100.333 -18.1684,43.835 -27.3339,103.667 -27.3339,179.504l0 413.497 94.9976 0 0 -413.334c0,-62.1661 5.83112,-108.164 17.3388,-137.499 11.4996,-29.4972 31.1644,-52.3337 59.3278,-68.168 28.0007,-15.9969 62.3368,-23.9995 102.837,-23.9995 69.3309,0 118.834,15.8343 148.332,47.3321 29.4972,31.6686 44.1685,92.3382 44.1685,182.334l0 413.334zm-266.003 43.9977l64.004 137.003 115.996 0 -107.001 -137.003 -72.9988 0z"
   id="glyph378" />
   <glyph
   unicode="Û"
   horiz-adv-x="722"
   d="M546.002 715.999l94.9976 0 0 -413.497c0,-71.9984 -8.16519,-129.171 -24.3329,-171.502 -16.3304,-42.1678 -45.6649,-76.6666 -88.0035,-103.171 -42.4931,-26.4962 -97.9986,-39.8338 -166.996,-39.8338 -66.8342,0 -121.665,11.5077 -164.166,34.6695 -42.6721,23.1699 -72.9988,56.4976 -91.1671,100.333 -18.1684,43.835 -27.3339,103.667 -27.3339,179.504l0 413.497 94.9976 0 0 -413.334c0,-62.1661 5.83112,-108.164 17.3388,-137.499 11.4996,-29.4972 31.1644,-52.3337 59.3278,-68.168 28.0007,-15.9969 62.3368,-23.9995 102.837,-23.9995 69.3309,0 118.834,15.8343 148.332,47.3321 29.4972,31.6686 44.1685,92.3382 44.1685,182.334l0 413.334zm-183.001 127l-54.5051 -83.0019 -99.9992 0 104.505 137.003 92.997 0 111.499 -137.003 -99.9992 0 -54.497 83.0019z"
   id="glyph380" />
   <glyph
   unicode="Ü"
   horiz-adv-x="722"
   d="M546.002 715.999l94.9976 0 0 -413.497c0,-71.9984 -8.16519,-129.171 -24.3329,-171.502 -16.3304,-42.1678 -45.6649,-76.6666 -88.0035,-103.171 -42.4931,-26.4962 -97.9986,-39.8338 -166.996,-39.8338 -66.8342,0 -121.665,11.5077 -164.166,34.6695 -42.6721,23.1699 -72.9988,56.4976 -91.1671,100.333 -18.1684,43.835 -27.3339,103.667 -27.3339,179.504l0 413.497 94.9976 0 0 -413.334c0,-62.1661 5.83112,-108.164 17.3388,-137.499 11.4996,-29.4972 31.1644,-52.3337 59.3278,-68.168 28.0007,-15.9969 62.3368,-23.9995 102.837,-23.9995 69.3309,0 118.834,15.8343 148.332,47.3321 29.4972,31.6686 44.1685,92.3382 44.1685,182.334l0 413.334zm-324.005 43.9977l0 99.9992 92.0048 0 0 -99.9992 -92.0048 0zm182.001 0l0 99.9992 92.0048 0 0 -99.9992 -92.0048 0z"
   id="glyph382" />
   <glyph
   unicode="Ý"
   horiz-adv-x="667"
   d="M278.836 0l0 303.332 -276.006 412.667 114.004 0 141.5 -216.662c26.3336,-40.1672 50.8291,-80.3344 73.1695,-120.502 21.8281,37.4997 48.3324,79.4968 79.1633,126.162l138.67 211.002 110.498 0 -286.001 -412.667 0 -303.332 -94.9976 0zm-7.83988 759.997l64.004 137.003 115.996 0 -106.993 -137.003 -73.0069 0z"
   id="glyph384" />
   <glyph
   unicode="Þ"
   horiz-adv-x="667"
   d="M77 0l0 715.999 94.9976 0 0 -145.998 174.999 0c47.5029,0 83.8396,-2.33407 109.335,-6.83143 35.003,-6.17269 64.5001,-17.5015 88.1662,-33.84 23.666,-16.5012 42.6721,-39.5003 57.0018,-68.9975 14.3297,-29.4972 21.5028,-62.0034 21.5028,-97.5025 0,-60.3281 -19.3395,-111.661 -58.0021,-153.667 -38.6708,-42.1678 -108.669,-63.1664 -209.668,-63.1664l-183.335 0 0 -145.998 -94.9976 0zm94.9976 230l184.506 0c60.9949,0 104.334,11.3369 130.001,34.1653 25.6667,22.8365 38.5,54.6677 38.5,95.8353 0,29.6679 -7.50645,55.1638 -22.3404,76.6666 -14.9966,21.5028 -34.8322,35.6698 -59.4985,42.5013 -15.8343,4.49736 -45.3314,6.83143 -88.4996,6.83143l-182.668 0 0 -256z"
   id="glyph386" />
   <glyph
   unicode="ß"
   horiz-adv-x="610"
   d="M74.9994 0l0 487.829c0,59.5067 7.33566,105.334 21.8362,137.336 14.6632,32.1647 38.8335,57.3353 72.9988,75.5036 34.0027,18.1602 72.3319,27.3339 114.833,27.3339 56.6684,0 101,-14.0044 132.668,-42.1678 31.8312,-28.1715 47.6655,-60.6696 47.6655,-97.6651 0,-16.672 -3.00095,-33.6692 -8.83207,-51.1707 -5.83925,-17.5015 -16.1677,-39.5003 -31.0017,-65.6631 -14.9966,-26.1709 -24.3329,-44.3393 -28.3342,-54.5051 -3.83048,-10.3285 -5.83112,-19.3313 -5.83112,-27.1631 0,-10.3366 3.66783,-20.6651 10.8327,-30.6683 6.83143,-10.4993 26.3336,-26.1628 58.8317,-47.3321 44.1685,-29.0011 73.503,-52.171 88.1662,-69.6644 20.8359,-24.9998 31.1644,-54.6677 31.1644,-88.6704 0,-45.1688 -16.6638,-83.8315 -50.1622,-115.996 -33.3358,-32.1728 -76.1705,-48.3405 -128.333,-48.3405 -41.0049,0 -77.1708,11.0035 -108.002,32.8397 -31.0017,21.9988 -54.1635,50.1622 -69.5017,84.4983l75.9997 35.1656c16.1677,-30.3348 32.3355,-51.1707 48.6658,-63.0037 16.3385,-11.6622 33.5066,-17.4934 51.3333,-17.4934 24.8371,0 46.0065,8.49863 63.6706,25.3332 17.5015,16.9973 26.3336,36.8328 26.3336,59.6612 0.333439,18.1684 -4.8308,33.8319 -15.1674,46.836 -6.66878,8.49863 -24.8371,22.9992 -54.1635,43.3308 -54.1716,36.6702 -87.4993,64.1667 -100.17,82.6685 -12.996,18.6645 -19.5021,37.6705 -19.5021,57.1645 0,12.6707 2.17142,25.504 6.50613,38.5 4.49736,13.1668 14.9966,33.84 31.6604,62.4995 16.672,28.6676 27.6673,50.1704 32.8315,64.3375 5.17237,14.3297 8.17332,27.0004 9.00285,38.1666 0,20.169 -9.00285,37.8331 -26.8296,53.334 -17.8349,15.5008 -41.6717,23.1618 -71.3397,23.1618 -35.1656,0 -63.8332,-10.6619 -86.1655,-32.1647 -22.4949,-21.4946 -33.6611,-67.9972 -33.6611,-139.662l0 -484.17 -88.0035 0z"
   id="glyph388" />
   <glyph
   unicode="à"
   horiz-adv-x="556"
   d="M404.998 64.9962c-32.6689,-27.83 -64.1667,-47.3321 -94.3307,-58.8317 -30.164,-11.4996 -62.4995,-17.168 -97.169,-17.168 -57.0018,0 -100.829,13.8337 -131.497,41.6717 -30.6683,27.6673 -45.9983,63.1664 -45.9983,106.335 0,25.3332 5.83112,48.4951 17.3307,69.4936 11.6622,21.0067 26.8296,37.6705 45.5022,50.333 18.8271,12.6707 39.8338,22.3404 63.329,28.8384 17.3307,4.49736 43.5016,8.83207 78.3338,13.1668 70.9981,8.33598 123.503,18.5018 157.001,30.164 0.333439,12.0038 0.496092,19.6648 0.496092,22.8365 0,35.6617 -8.32784,60.8323 -24.9998,75.4955 -22.4949,19.8356 -55.9934,29.6679 -100.333,29.6679 -41.501,0 -72.1611,-7.33566 -91.834,-21.8281 -19.8274,-14.5005 -34.328,-40.1672 -43.8269,-77.1708l-86.0029 12.0038c7.83175,36.8328 20.6651,66.6634 38.6708,89.3291 17.9976,22.6657 43.9977,40.0046 77.9922,52.3337 33.84,12.1665 73.3403,18.331 118.005,18.331 44.3311,0 80.4971,-5.16424 108.335,-15.6635 27.6673,-10.4993 48.1616,-23.5034 61.1657,-39.3377 12.996,-15.8262 22.1615,-35.8325 27.4965,-59.9946 2.8383,-15.0048 4.33471,-42.0052 4.33471,-80.8386l0 -116.663c0,-81.4974 1.82985,-133.002 5.49768,-154.83 3.50518,-21.8362 10.8327,-42.6721 21.5028,-62.6703l-91.9966 0c-8.8402,18.5018 -14.5005,40.1672 -17.0054,64.9962zm-7.00222 195.005c-31.9939,-13.0041 -79.9928,-23.9995 -143.997,-33.0023 -36.3286,-5.16424 -61.9953,-10.9954 -77,-17.5015 -14.9966,-6.498 -26.4962,-15.9969 -34.6695,-28.3342 -8.16519,-12.4999 -12.3291,-26.3336 -12.3291,-41.6636 0,-23.1699 8.83207,-42.6639 26.667,-58.1648 17.8349,-15.5008 43.835,-23.3326 78.0003,-23.3326 33.8319,0 63.9959,7.32753 90.5002,22.1615 26.3336,14.6713 45.8357,34.8403 58.1648,60.3362 9.49895,19.8356 14.1671,48.9993 14.1671,87.4993l0.496092 32.002zm-35.9952 322.997l-70.9981 0 -113.003 137.003 117.997 0 66.0047 -137.003z"
   id="glyph390" />
   <glyph
   unicode="á"
   horiz-adv-x="556"
   d="M404.998 64.9962c-32.6689,-27.83 -64.1667,-47.3321 -94.3307,-58.8317 -30.164,-11.4996 -62.4995,-17.168 -97.169,-17.168 -57.0018,0 -100.829,13.8337 -131.497,41.6717 -30.6683,27.6673 -45.9983,63.1664 -45.9983,106.335 0,25.3332 5.83112,48.4951 17.3307,69.4936 11.6622,21.0067 26.8296,37.6705 45.5022,50.333 18.8271,12.6707 39.8338,22.3404 63.329,28.8384 17.3307,4.49736 43.5016,8.83207 78.3338,13.1668 70.9981,8.33598 123.503,18.5018 157.001,30.164 0.333439,12.0038 0.496092,19.6648 0.496092,22.8365 0,35.6617 -8.32784,60.8323 -24.9998,75.4955 -22.4949,19.8356 -55.9934,29.6679 -100.333,29.6679 -41.501,0 -72.1611,-7.33566 -91.834,-21.8281 -19.8274,-14.5005 -34.328,-40.1672 -43.8269,-77.1708l-86.0029 12.0038c7.83175,36.8328 20.6651,66.6634 38.6708,89.3291 17.9976,22.6657 43.9977,40.0046 77.9922,52.3337 33.84,12.1665 73.3403,18.331 118.005,18.331 44.3311,0 80.4971,-5.16424 108.335,-15.6635 27.6673,-10.4993 48.1616,-23.5034 61.1657,-39.3377 12.996,-15.8262 22.1615,-35.8325 27.4965,-59.9946 2.8383,-15.0048 4.33471,-42.0052 4.33471,-80.8386l0 -116.663c0,-81.4974 1.82985,-133.002 5.49768,-154.83 3.50518,-21.8362 10.8327,-42.6721 21.5028,-62.6703l-91.9966 0c-8.8402,18.5018 -14.5005,40.1672 -17.0054,64.9962zm-7.00222 195.005c-31.9939,-13.0041 -79.9928,-23.9995 -143.997,-33.0023 -36.3286,-5.16424 -61.9953,-10.9954 -77,-17.5015 -14.9966,-6.498 -26.4962,-15.9969 -34.6695,-28.3342 -8.16519,-12.4999 -12.3291,-26.3336 -12.3291,-41.6636 0,-23.1699 8.83207,-42.6639 26.667,-58.1648 17.8349,-15.5008 43.835,-23.3326 78.0003,-23.3326 33.8319,0 63.9959,7.32753 90.5002,22.1615 26.3336,14.6713 45.8357,34.8403 58.1648,60.3362 9.49895,19.8356 14.1671,48.9993 14.1671,87.4993l0.496092 32.002zm-184.994 322.997l63.9959 137.003 116.004 0 -107.001 -137.003 -72.9988 0z"
   id="glyph392" />
   <glyph
   unicode="â"
   horiz-adv-x="556"
   d="M404.998 64.9962c-32.6689,-27.83 -64.1667,-47.3321 -94.3307,-58.8317 -30.164,-11.4996 -62.4995,-17.168 -97.169,-17.168 -57.0018,0 -100.829,13.8337 -131.497,41.6717 -30.6683,27.6673 -45.9983,63.1664 -45.9983,106.335 0,25.3332 5.83112,48.4951 17.3307,69.4936 11.6622,21.0067 26.8296,37.6705 45.5022,50.333 18.8271,12.6707 39.8338,22.3404 63.329,28.8384 17.3307,4.49736 43.5016,8.83207 78.3338,13.1668 70.9981,8.33598 123.503,18.5018 157.001,30.164 0.333439,12.0038 0.496092,19.6648 0.496092,22.8365 0,35.6617 -8.32784,60.8323 -24.9998,75.4955 -22.4949,19.8356 -55.9934,29.6679 -100.333,29.6679 -41.501,0 -72.1611,-7.33566 -91.834,-21.8281 -19.8274,-14.5005 -34.328,-40.1672 -43.8269,-77.1708l-86.0029 12.0038c7.83175,36.8328 20.6651,66.6634 38.6708,89.3291 17.9976,22.6657 43.9977,40.0046 77.9922,52.3337 33.84,12.1665 73.3403,18.331 118.005,18.331 44.3311,0 80.4971,-5.16424 108.335,-15.6635 27.6673,-10.4993 48.1616,-23.5034 61.1657,-39.3377 12.996,-15.8262 22.1615,-35.8325 27.4965,-59.9946 2.8383,-15.0048 4.33471,-42.0052 4.33471,-80.8386l0 -116.663c0,-81.4974 1.82985,-133.002 5.49768,-154.83 3.50518,-21.8362 10.8327,-42.6721 21.5028,-62.6703l-91.9966 0c-8.8402,18.5018 -14.5005,40.1672 -17.0054,64.9962zm-7.00222 195.005c-31.9939,-13.0041 -79.9928,-23.9995 -143.997,-33.0023 -36.3286,-5.16424 -61.9953,-10.9954 -77,-17.5015 -14.9966,-6.498 -26.4962,-15.9969 -34.6695,-28.3342 -8.16519,-12.4999 -12.3291,-26.3336 -12.3291,-41.6636 0,-23.1699 8.83207,-42.6639 26.667,-58.1648 17.8349,-15.5008 43.835,-23.3326 78.0003,-23.3326 33.8319,0 63.9959,7.32753 90.5002,22.1615 26.3336,14.6713 45.8357,34.8403 58.1648,60.3362 9.49895,19.8356 14.1671,48.9993 14.1671,87.4993l0.496092 32.002zm-121.998 405.999l-54.497 -83.0019 -99.9992 0 104.497 137.003 93.0051 0 111.499 -137.003 -99.9992 0 -54.5051 83.0019z"
   id="glyph394" />
   <glyph
   unicode="ã"
   horiz-adv-x="556"
   d="M404.998 64.9962c-32.6689,-27.83 -64.1667,-47.3321 -94.3307,-58.8317 -30.164,-11.4996 -62.4995,-17.168 -97.169,-17.168 -57.0018,0 -100.829,13.8337 -131.497,41.6717 -30.6683,27.6673 -45.9983,63.1664 -45.9983,106.335 0,25.3332 5.83112,48.4951 17.3307,69.4936 11.6622,21.0067 26.8296,37.6705 45.5022,50.333 18.8271,12.6707 39.8338,22.3404 63.329,28.8384 17.3307,4.49736 43.5016,8.83207 78.3338,13.1668 70.9981,8.33598 123.503,18.5018 157.001,30.164 0.333439,12.0038 0.496092,19.6648 0.496092,22.8365 0,35.6617 -8.32784,60.8323 -24.9998,75.4955 -22.4949,19.8356 -55.9934,29.6679 -100.333,29.6679 -41.501,0 -72.1611,-7.33566 -91.834,-21.8281 -19.8274,-14.5005 -34.328,-40.1672 -43.8269,-77.1708l-86.0029 12.0038c7.83175,36.8328 20.6651,66.6634 38.6708,89.3291 17.9976,22.6657 43.9977,40.0046 77.9922,52.3337 33.84,12.1665 73.3403,18.331 118.005,18.331 44.3311,0 80.4971,-5.16424 108.335,-15.6635 27.6673,-10.4993 48.1616,-23.5034 61.1657,-39.3377 12.996,-15.8262 22.1615,-35.8325 27.4965,-59.9946 2.8383,-15.0048 4.33471,-42.0052 4.33471,-80.8386l0 -116.663c0,-81.4974 1.82985,-133.002 5.49768,-154.83 3.50518,-21.8362 10.8327,-42.6721 21.5028,-62.6703l-91.9966 0c-8.8402,18.5018 -14.5005,40.1672 -17.0054,64.9962zm-7.00222 195.005c-31.9939,-13.0041 -79.9928,-23.9995 -143.997,-33.0023 -36.3286,-5.16424 -61.9953,-10.9954 -77,-17.5015 -14.9966,-6.498 -26.4962,-15.9969 -34.6695,-28.3342 -8.16519,-12.4999 -12.3291,-26.3336 -12.3291,-41.6636 0,-23.1699 8.83207,-42.6639 26.667,-58.1648 17.8349,-15.5008 43.835,-23.3326 78.0003,-23.3326 33.8319,0 63.9959,7.32753 90.5002,22.1615 26.3336,14.6713 45.8357,34.8403 58.1648,60.3362 9.49895,19.8356 14.1671,48.9993 14.1671,87.4993l0.496092 32.002zm-285.993 321.996c-0.333439,33.4984 8.99472,60.1654 27.83,80.1718 18.5018,19.8274 42.3305,29.8306 71.3316,29.8306 20.169,0 47.6655,-8.49863 82.335,-25.6667 19.1687,-9.49895 34.4987,-14.3297 45.8357,-14.3297 10.4993,0 18.5018,2.83017 23.9995,8.49863 5.49768,5.49768 9.32816,16.8346 11.6622,33.4984l63.0037 0c-1.00032,-37.0036 -10.3366,-64.6709 -28.0007,-83.1646 -17.6641,-18.5018 -39.9964,-27.8381 -67.3303,-27.8381 -20.3398,0 -47.3402,9.16551 -80.6679,27.3339 -21.8362,11.833 -37.8331,17.6723 -47.999,17.6723 -11.0035,0 -20.0063,-3.83862 -26.667,-11.6704 -7.17301,-7.6691 -10.67,-19.1687 -10.3366,-34.3361l-64.9962 0z"
   id="glyph396" />
   <glyph
   unicode="ä"
   horiz-adv-x="556"
   d="M404.998 64.9962c-32.6689,-27.83 -64.1667,-47.3321 -94.3307,-58.8317 -30.164,-11.4996 -62.4995,-17.168 -97.169,-17.168 -57.0018,0 -100.829,13.8337 -131.497,41.6717 -30.6683,27.6673 -45.9983,63.1664 -45.9983,106.335 0,25.3332 5.83112,48.4951 17.3307,69.4936 11.6622,21.0067 26.8296,37.6705 45.5022,50.333 18.8271,12.6707 39.8338,22.3404 63.329,28.8384 17.3307,4.49736 43.5016,8.83207 78.3338,13.1668 70.9981,8.33598 123.503,18.5018 157.001,30.164 0.333439,12.0038 0.496092,19.6648 0.496092,22.8365 0,35.6617 -8.32784,60.8323 -24.9998,75.4955 -22.4949,19.8356 -55.9934,29.6679 -100.333,29.6679 -41.501,0 -72.1611,-7.33566 -91.834,-21.8281 -19.8274,-14.5005 -34.328,-40.1672 -43.8269,-77.1708l-86.0029 12.0038c7.83175,36.8328 20.6651,66.6634 38.6708,89.3291 17.9976,22.6657 43.9977,40.0046 77.9922,52.3337 33.84,12.1665 73.3403,18.331 118.005,18.331 44.3311,0 80.4971,-5.16424 108.335,-15.6635 27.6673,-10.4993 48.1616,-23.5034 61.1657,-39.3377 12.996,-15.8262 22.1615,-35.8325 27.4965,-59.9946 2.8383,-15.0048 4.33471,-42.0052 4.33471,-80.8386l0 -116.663c0,-81.4974 1.82985,-133.002 5.49768,-154.83 3.50518,-21.8362 10.8327,-42.6721 21.5028,-62.6703l-91.9966 0c-8.8402,18.5018 -14.5005,40.1672 -17.0054,64.9962zm-7.00222 195.005c-31.9939,-13.0041 -79.9928,-23.9995 -143.997,-33.0023 -36.3286,-5.16424 -61.9953,-10.9954 -77,-17.5015 -14.9966,-6.498 -26.4962,-15.9969 -34.6695,-28.3342 -8.16519,-12.4999 -12.3291,-26.3336 -12.3291,-41.6636 0,-23.1699 8.83207,-42.6639 26.667,-58.1648 17.8349,-15.5008 43.835,-23.3326 78.0003,-23.3326 33.8319,0 63.9959,7.32753 90.5002,22.1615 26.3336,14.6713 45.8357,34.8403 58.1648,60.3362 9.49895,19.8356 14.1671,48.9993 14.1671,87.4993l0.496092 32.002zm-245.997 322.997l0 99.9992 91.9966 0 0 -99.9992 -91.9966 0zm182.001 0l0 99.9992 91.9966 0 0 -99.9992 -91.9966 0z"
   id="glyph398" />
   <glyph
   unicode="å"
   horiz-adv-x="556"
   d="M404.998 64.9962c-32.6689,-27.83 -64.1667,-47.3321 -94.3307,-58.8317 -30.164,-11.4996 -62.4995,-17.168 -97.169,-17.168 -57.0018,0 -100.829,13.8337 -131.497,41.6717 -30.6683,27.6673 -45.9983,63.1664 -45.9983,106.335 0,25.3332 5.83112,48.4951 17.3307,69.4936 11.6622,21.0067 26.8296,37.6705 45.5022,50.333 18.8271,12.6707 39.8338,22.3404 63.329,28.8384 17.3307,4.49736 43.5016,8.83207 78.3338,13.1668 70.9981,8.33598 123.503,18.5018 157.001,30.164 0.333439,12.0038 0.496092,19.6648 0.496092,22.8365 0,35.6617 -8.32784,60.8323 -24.9998,75.4955 -22.4949,19.8356 -55.9934,29.6679 -100.333,29.6679 -41.501,0 -72.1611,-7.33566 -91.834,-21.8281 -19.8274,-14.5005 -34.328,-40.1672 -43.8269,-77.1708l-86.0029 12.0038c7.83175,36.8328 20.6651,66.6634 38.6708,89.3291 17.9976,22.6657 43.9977,40.0046 77.9922,52.3337 33.84,12.1665 73.3403,18.331 118.005,18.331 44.3311,0 80.4971,-5.16424 108.335,-15.6635 27.6673,-10.4993 48.1616,-23.5034 61.1657,-39.3377 12.996,-15.8262 22.1615,-35.8325 27.4965,-59.9946 2.8383,-15.0048 4.33471,-42.0052 4.33471,-80.8386l0 -116.663c0,-81.4974 1.82985,-133.002 5.49768,-154.83 3.50518,-21.8362 10.8327,-42.6721 21.5028,-62.6703l-91.9966 0c-8.8402,18.5018 -14.5005,40.1672 -17.0054,64.9962zm-7.00222 195.005c-31.9939,-13.0041 -79.9928,-23.9995 -143.997,-33.0023 -36.3286,-5.16424 -61.9953,-10.9954 -77,-17.5015 -14.9966,-6.498 -26.4962,-15.9969 -34.6695,-28.3342 -8.16519,-12.4999 -12.3291,-26.3336 -12.3291,-41.6636 0,-23.1699 8.83207,-42.6639 26.667,-58.1648 17.8349,-15.5008 43.835,-23.3326 78.0003,-23.3326 33.8319,0 63.9959,7.32753 90.5002,22.1615 26.3336,14.6713 45.8357,34.8403 58.1648,60.3362 9.49895,19.8356 14.1671,48.9993 14.1671,87.4993l0.496092 32.002zm-200.494 414.497c0,23.8368 8.66128,44.3311 26.0001,61.67 17.3307,17.168 37.8331,25.8293 61.4992,25.8293 23.9995,0 44.5019,-8.66128 61.8326,-26.1628 17.168,-17.5015 25.6667,-38.5 25.6667,-63.3372 0,-25.1624 -8.49863,-46.3318 -25.6667,-63.4998 -17.3307,-17.3307 -37.6705,-26.0001 -61.3365,-26.0001 -24.3329,0 -44.998,8.66942 -62.1661,26.1709 -17.168,17.5015 -25.8293,39.1669 -25.8293,65.3297zm36.9955 -0.496092c0,-15.3382 5.17237,-28.0007 15.3382,-38.5 10.1658,-10.3366 22.3323,-15.5008 36.1659,-15.5008 13.9963,0 26.0001,5.16424 36.1659,15.5008 10.1658,10.4993 15.3301,22.9992 15.3301,37.4997 0,14.6632 -4.99345,27.0004 -14.9966,37.4997 -10.1658,10.3285 -22.1696,15.5008 -36.4994,15.5008 -13.8337,0 -26.0001,-5.17237 -36.1659,-15.3382 -10.1658,-10.1658 -15.3382,-22.4949 -15.3382,-36.662z"
   id="glyph400" />
   <glyph
   unicode="æ"
   horiz-adv-x="889"
   d="M846 159.002c-16.3304,-54.1716 -43.9977,-96.1687 -83.0019,-125.666 -38.9961,-29.5053 -87.4993,-44.3393 -145.331,-44.3393 -41.3302,0 -77.5042,7.83988 -108.669,23.5034 -31.0017,15.5008 -59.1651,39.9964 -84.1649,73.1695 -33.8319,-33.1731 -67.9972,-57.6687 -102.667,-73.1695 -34.6695,-15.6635 -71.9984,-23.5034 -112.003,-23.5034 -56.0015,0 -99.495,14.3379 -130.497,43.0055 -31.1644,28.6676 -46.6652,63.6625 -46.6652,104.83 0,27.8381 7.9944,54.0009 23.9995,78.5046 16.1677,24.4956 38.5,42.9974 67.1676,55.6599 28.6676,12.6707 74.4952,23.0073 137.328,31.1725 48.6658,6.498 89.4999,14.5005 122.502,23.8287 0.333439,8.16519 0.504225,14.834 0.504225,20.0063 0,41.1594 -8.50676,69.827 -25.504,86.3282 -16.9973,16.5012 -46.836,24.6664 -89.3373,24.6664 -28.1634,0 -51.9921,-3.33439 -71.4942,-10.1658 -19.5021,-6.83143 -33.8319,-16.5012 -43.0055,-29.0011 -9.32816,-12.4999 -16.9973,-32.4981 -23.1618,-60.1654l-85.0026 10.3366c9.16551,37.9958 22.1696,68.1598 39.3377,90.5002 16.9973,22.3323 41.501,39.8338 73.4948,52.4963 31.8394,12.6707 69.0056,18.9979 111.67,18.9979 54.3343,0 98.1693,-8.16519 131.334,-24.4956 19.1687,-9.33629 35.3283,-24.5037 48.3324,-45.3314 20.8359,22.8284 44.5019,40.1591 70.8355,52.0002 26.3336,11.833 58.1648,17.8268 95.6645,17.8268 52.6671,0 96.3314,-12.8333 130.83,-38.3292 34.4987,-25.504 59.6693,-59.1651 75.6663,-101.17 15.8343,-41.8344 23.8368,-83.1646 23.8368,-123.828 0,-6.17269 -0.333439,-16.0051 -1.00032,-29.6679l-374.997 0c0.666878,-46.836 6.498,-80.8386 17.3307,-101.837 10.9954,-21.1612 28.3342,-38.8335 52.3337,-53.0005 23.9995,-14.1671 50.1622,-21.1612 78.8299,-21.1612 33.6692,0 62.0034,9.6616 85.336,28.8303 23.3326,19.1687 39.3295,46.1691 48.1697,80.8305l91.9966 -11.6622zm-373.997 149.999l285.993 0c-4.49736,51.3333 -19.3313,88.833 -43.9977,112.499 -24.829,23.666 -57.1645,35.4991 -96.9982,35.4991 -41.1675,0 -74.8367,-12.996 -101.17,-38.9961 -26.3336,-25.8375 -40.8341,-62.3368 -43.8269,-109.002zm-86.0029 -48.9993c-25.6667,-11.0035 -77.8377,-22.8365 -156.83,-35.4991 -35.3364,-5.50581 -60.1736,-13.8337 -74.5033,-24.8371 -19.1687,-15.3301 -28.6676,-35.1656 -28.6676,-59.832 0,-23.1699 8.66942,-42.5013 25.8375,-58.1648 17.1599,-15.8343 42.1597,-23.666 74.9994,-23.666 37.3289,0 69.827,9.16551 97.4943,27.6673 27.8381,18.4937 46.0065,41.6636 54.3343,69.1601 4.83893,16.8346 7.33566,52.0002 7.33566,105.172z"
   id="glyph402" />
   <glyph
   unicode="ç"
   horiz-adv-x="499"
   d="M404.998 190.003l86.0029 -12.0038c-9.49895,-59.1651 -33.4984,-105.334 -72.3319,-138.833 -38.8335,-33.4984 -86.6698,-50.1704 -143.167,-50.1704 -70.8355,0 -127.837,23.1699 -170.835,69.5017 -43.1682,46.3318 -64.6709,112.67 -64.6709,198.998 0,56.0015 9.33629,104.838 27.8381,146.835 18.5018,41.8344 46.6652,73.3322 84.6691,94.1681 37.8331,20.9985 78.9925,31.4978 123.665,31.4978 56.1641,0 102.333,-14.1671 137.995,-42.6639 35.8325,-28.4968 58.8398,-68.9975 68.8348,-121.331l-85.0026 -13.0041c-8.16519,34.8322 -22.4949,61.0031 -43.3308,78.6672 -20.6651,17.5015 -45.6649,26.3336 -74.9994,26.3336 -44.3311,0 -80.3344,-15.8343 -108.164,-47.5029 -27.6673,-31.8312 -41.501,-81.8308 -41.501,-150.495 0,-69.6644 13.3294,-120.168 39.9964,-151.666 26.8378,-31.4978 61.67,-47.3321 104.505,-47.3321 34.6614,0 63.4998,10.4993 86.499,31.6604 23.1699,21.0067 37.8331,53.5048 43.9977,97.3398zm-205.333 -276.006l25.3332 86.0029 65.0044 0 -16.1677 -52.0002c27.83,-3.33439 48.8285,-11.833 62.9956,-25.6667 14.1671,-13.6629 21.1693,-29.0011 21.1693,-45.8357 0,-24.3329 -11.833,-45.8275 -35.4991,-64.5001 -23.5034,-18.6645 -59.1651,-28.0007 -106.668,-28.0007 -26.8296,0 -50.4957,0 -70.8355,0l5.00159 62.0034c21.1693,-0.666878 36.4994,-1.00032 46.5025,-1.00032 30.8309,0 52.6671,4.16392 65.167,12.6707 9.49895,6.498 14.3297,14.3297 14.3297,23.8287 0,5.83112 -1.82985,11.0035 -5.66846,15.5008 -3.6597,4.49736 -10.4993,8.49863 -20.4943,11.6704 -10.1658,3.1636 -26.8378,4.99345 -50.1704,5.32689z"
   id="glyph404" />
   <glyph
   unicode="è"
   horiz-adv-x="556"
   d="M420.003 167.996l90.9963 -11.9957c-14.1671,-52.8379 -40.6633,-93.9973 -79.3341,-123.169 -38.6627,-29.1637 -87.9954,-43.835 -148.169,-43.835 -75.6663,0 -135.661,23.3407 -180,70.0059 -44.3311,46.4944 -66.4926,111.995 -66.4926,196.168 0,86.9951 22.3323,154.667 67.1595,202.666 44.8354,48.1616 103,72.1611 174.502,72.1611 69.1683,0 125.666,-23.4953 169.501,-70.6647 43.835,-47.1694 65.8339,-113.499 65.8339,-198.998 0,-5.16424 -0.170786,-13.0041 -0.504225,-23.3326l-386.497 0c3.33439,-56.8392 19.3313,-100.503 48.3324,-130.667 28.8384,-30.164 65.0044,-45.3314 108.164,-45.3314 32.1728,0 59.6693,8.49863 82.335,25.4959 22.8365,16.9973 40.8341,44.1685 54.1716,81.4974zm-288.002 141.004l289.002 0c-3.83862,43.6643 -15.0048,76.3331 -33.1731,98.1693 -27.83,33.8319 -64.1667,50.8291 -108.66,50.8291 -40.338,0 -74.1699,-13.5002 -101.666,-40.5006 -27.3339,-27.0004 -42.5013,-63.1664 -45.5022,-108.498zm217.996 273.997l-70.9981 0 -112.995 137.003 117.997 0 65.9965 -137.003z"
   id="glyph406" />
   <glyph
   unicode="é"
   horiz-adv-x="556"
   d="M420.003 167.996l90.9963 -11.9957c-14.1671,-52.8379 -40.6633,-93.9973 -79.3341,-123.169 -38.6627,-29.1637 -87.9954,-43.835 -148.169,-43.835 -75.6663,0 -135.661,23.3407 -180,70.0059 -44.3311,46.4944 -66.4926,111.995 -66.4926,196.168 0,86.9951 22.3323,154.667 67.1595,202.666 44.8354,48.1616 103,72.1611 174.502,72.1611 69.1683,0 125.666,-23.4953 169.501,-70.6647 43.835,-47.1694 65.8339,-113.499 65.8339,-198.998 0,-5.16424 -0.170786,-13.0041 -0.504225,-23.3326l-386.497 0c3.33439,-56.8392 19.3313,-100.503 48.3324,-130.667 28.8384,-30.164 65.0044,-45.3314 108.164,-45.3314 32.1728,0 59.6693,8.49863 82.335,25.4959 22.8365,16.9973 40.8341,44.1685 54.1716,81.4974zm-288.002 141.004l289.002 0c-3.83862,43.6643 -15.0048,76.3331 -33.1731,98.1693 -27.83,33.8319 -64.1667,50.8291 -108.66,50.8291 -40.338,0 -74.1699,-13.5002 -101.666,-40.5006 -27.3339,-27.0004 -42.5013,-63.1664 -45.5022,-108.498zm73.9991 273.997l63.9959 137.003 116.004 0 -107.001 -137.003 -72.9988 0z"
   id="glyph408" />
   <glyph
   unicode="ê"
   horiz-adv-x="556"
   d="M420.003 167.996l90.9963 -11.9957c-14.1671,-52.8379 -40.6633,-93.9973 -79.3341,-123.169 -38.6627,-29.1637 -87.9954,-43.835 -148.169,-43.835 -75.6663,0 -135.661,23.3407 -180,70.0059 -44.3311,46.4944 -66.4926,111.995 -66.4926,196.168 0,86.9951 22.3323,154.667 67.1595,202.666 44.8354,48.1616 103,72.1611 174.502,72.1611 69.1683,0 125.666,-23.4953 169.501,-70.6647 43.835,-47.1694 65.8339,-113.499 65.8339,-198.998 0,-5.16424 -0.170786,-13.0041 -0.504225,-23.3326l-386.497 0c3.33439,-56.8392 19.3313,-100.503 48.3324,-130.667 28.8384,-30.164 65.0044,-45.3314 108.164,-45.3314 32.1728,0 59.6693,8.49863 82.335,25.4959 22.8365,16.9973 40.8341,44.1685 54.1716,81.4974zm-288.002 141.004l289.002 0c-3.83862,43.6643 -15.0048,76.3331 -33.1731,98.1693 -27.83,33.8319 -64.1667,50.8291 -108.66,50.8291 -40.338,0 -74.1699,-13.5002 -101.666,-40.5006 -27.3339,-27.0004 -42.5013,-63.1664 -45.5022,-108.498zm144.997 356.999l-54.497 -83.0019 -99.9992 0 104.497 137.003 93.0051 0 111.499 -137.003 -99.9992 0 -54.5051 83.0019z"
   id="glyph410" />
   <glyph
   unicode="ë"
   horiz-adv-x="556"
   d="M420.003 167.996l90.9963 -11.9957c-14.1671,-52.8379 -40.6633,-93.9973 -79.3341,-123.169 -38.6627,-29.1637 -87.9954,-43.835 -148.169,-43.835 -75.6663,0 -135.661,23.3407 -180,70.0059 -44.3311,46.4944 -66.4926,111.995 -66.4926,196.168 0,86.9951 22.3323,154.667 67.1595,202.666 44.8354,48.1616 103,72.1611 174.502,72.1611 69.1683,0 125.666,-23.4953 169.501,-70.6647 43.835,-47.1694 65.8339,-113.499 65.8339,-198.998 0,-5.16424 -0.170786,-13.0041 -0.504225,-23.3326l-386.497 0c3.33439,-56.8392 19.3313,-100.503 48.3324,-130.667 28.8384,-30.164 65.0044,-45.3314 108.164,-45.3314 32.1728,0 59.6693,8.49863 82.335,25.4959 22.8365,16.9973 40.8341,44.1685 54.1716,81.4974zm-288.002 141.004l289.002 0c-3.83862,43.6643 -15.0048,76.3331 -33.1731,98.1693 -27.83,33.8319 -64.1667,50.8291 -108.66,50.8291 -40.338,0 -74.1699,-13.5002 -101.666,-40.5006 -27.3339,-27.0004 -42.5013,-63.1664 -45.5022,-108.498zm13.9963 273.997l0 99.9992 92.0048 0 0 -99.9992 -92.0048 0zm182.001 0l0 99.9992 92.0048 0 0 -99.9992 -92.0048 0z"
   id="glyph412" />
   <glyph
   unicode="ì"
   horiz-adv-x="277"
   d="M96.9982 0l0 519.002 88.0035 0 0 -519.002 -88.0035 0zm115.004 582.998l-70.9981 0 -113.003 137.003 117.997 0 66.0047 -137.003z"
   id="glyph414" />
   <glyph
   unicode="í"
   horiz-adv-x="277"
   d="M96.9982 0l0 519.002 88.0035 0 0 -519.002 -88.0035 0zm-29.0011 582.998l64.004 137.003 115.996 0 -106.993 -137.003 -73.0069 0z"
   id="glyph416" />
   <glyph
   unicode="î"
   horiz-adv-x="277"
   d="M96.9982 0l0 519.002 88.0035 0 0 -519.002 -88.0035 0zm48.9993 666l-54.497 -83.0019 -99.9992 0 104.497 137.003 93.0051 0 111.499 -137.003 -99.9992 0 -54.5051 83.0019z"
   id="glyph418" />
   <glyph
   unicode="ï"
   horiz-adv-x="277"
   d="M96.9982 0l0 519.002 88.0035 0 0 -519.002 -88.0035 0zm-93.9973 582.998l0 99.9992 91.9966 0 0 -99.9992 -91.9966 0zm182.001 0l0 99.9992 91.9966 0 0 -99.9992 -91.9966 0z"
   id="glyph420" />
   <glyph
   unicode="ð"
   horiz-adv-x="556"
   d="M150.999 715.999l106.164 0c22.6739,-18.5018 42.8347,-34.8322 60.3362,-48.9993l105.505 48.9993 21.8281 -49.8288 -84.8318 -39.5003c104,-119.672 156.001,-243.5 156.001,-371.004 0,-82.335 -22.6657,-147.502 -67.8345,-195.168 -45.1688,-47.6655 -102.667,-71.5023 -172.665,-71.5023 -82.8393,0 -147.665,31.5059 -194.167,94.3389 -30.164,41.3302 -45.3314,97.6651 -45.3314,169.501 0,84.661 20.9985,149.999 63.1664,195.997 41.9971,46.1691 94.6642,69.1683 157.993,69.1683 19.006,0 35.5072,-2.00063 49.8369,-5.83112 14.5005,-3.83862 32.3355,-11.5077 53.8301,-22.8365 -11.6622,23.9995 -21.9988,42.6639 -30.8309,55.8307 -8.66942,13.3376 -21.8362,29.8387 -38.9961,49.3327l-134.173 -62.4995 -21.4946 50.333 115.996 53.8382c-33.165,26.4962 -66.6634,53.0005 -100.333,79.8302zm274.998 -456.999c0,62.1661 -14.834,109.669 -44.3311,142.663 -29.4972,32.8397 -65.8339,49.3327 -108.831,49.3327 -42.5013,0 -77.5042,-16.493 -105.172,-49.3327 -27.83,-32.9942 -41.6636,-83.3272 -41.6636,-150.999 0,-62.8329 14.3379,-110.165 42.8347,-141.996 28.4968,-31.8312 64.1667,-47.6655 107.001,-47.6655 41.6636,0 77.1627,16.8265 106.335,50.333 29.1637,33.4984 43.8269,82.6604 43.8269,147.665z"
   id="glyph422" />
   <glyph
   unicode="ñ"
   horiz-adv-x="556"
   d="M65.9965 0l0 519.002 79.0007 0 0 -73.6656c38.0039,56.4976 93.0051,84.661 164.833,84.661 31.3351,0 60.0028,-5.66033 86.1737,-16.8346 26.1628,-11.1661 45.8275,-26.0001 58.8317,-44.1603 12.996,-18.1684 22.1615,-39.8338 27.3339,-64.8336 3.1636,-16.3385 4.8308,-44.8354 4.8308,-85.4987l0 -318.67 -88.0035 0 0 315.336c0,35.8325 -3.32626,62.6621 -10.1658,80.3344 -6.83143,17.6641 -18.9979,31.8312 -36.3286,42.4931 -17.3388,10.5074 -37.8331,15.8343 -61.1657,15.8343 -37.337,0 -69.5017,-11.833 -96.6729,-35.6617 -27.1631,-23.666 -40.6633,-68.8348 -40.6633,-135.173l0 -283.163 -88.0035 0zm61.0031 581.998c-0.333439,33.4984 9.00285,60.1654 27.83,80.1718 18.5018,19.8274 42.3386,29.8306 71.3397,29.8306 20.1609,0 47.6655,-8.49863 82.3269,-25.6667 19.1687,-9.49895 34.5069,-14.3297 45.8357,-14.3297 10.4993,0 18.5018,2.83017 23.9995,8.49863 5.50581,5.49768 9.33629,16.8346 11.6704,33.4984l62.9956 0c-1.00032,-37.0036 -10.3285,-64.6709 -28.0007,-83.1646 -17.6641,-18.5018 -39.9964,-27.8381 -67.3303,-27.8381 -20.3316,0 -47.3321,9.16551 -80.6679,27.3339 -21.8281,11.833 -37.8331,17.6723 -47.999,17.6723 -11.0035,0 -19.9982,-3.83862 -26.667,-11.6704 -7.16487,-7.6691 -10.6619,-19.1687 -10.3285,-34.3361l-65.0044 0z"
   id="glyph424" />
   <glyph
   unicode="ò"
   horiz-adv-x="556"
   d="M33.0023 259.497c0,95.8353 26.667,166.833 80.1636,213.002 44.5019,38.3374 98.9989,57.4979 163.166,57.4979 71.1689,0 129.504,-23.3326 174.836,-69.9978 45.1688,-46.5025 67.8345,-111.003 67.8345,-193.167 0,-66.6634 -10.0032,-118.997 -30.0014,-157.164 -19.9982,-38.1666 -49.1701,-67.8345 -87.4993,-89.0038 -38.1666,-21.1612 -80.001,-31.6686 -125.17,-31.6686 -72.6653,0 -131.334,23.1699 -176.162,69.6725 -44.8354,46.4944 -67.1676,113.499 -67.1676,200.828zm89.996 -0.162653c0,-66.3381 14.5005,-116.004 43.5016,-148.836 29.1637,-33.0023 65.6631,-49.4954 109.832,-49.4954 43.6724,0 80.001,16.493 109.165,49.6662 29.0011,33.165 43.5016,83.6607 43.5016,151.495 0,64.004 -14.6632,112.499 -43.835,145.339 -29.1637,32.9942 -65.4923,49.4954 -108.831,49.4954 -44.1685,0 -80.6679,-16.3304 -109.832,-49.1619 -29.0011,-32.8397 -43.5016,-82.335 -43.5016,-148.502zm223.998 323.664l-70.9981 0 -112.995 137.003 117.997 0 65.9965 -137.003z"
   id="glyph426" />
   <glyph
   unicode="ó"
   horiz-adv-x="556"
   d="M33.0023 259.497c0,95.8353 26.667,166.833 80.1636,213.002 44.5019,38.3374 98.9989,57.4979 163.166,57.4979 71.1689,0 129.504,-23.3326 174.836,-69.9978 45.1688,-46.5025 67.8345,-111.003 67.8345,-193.167 0,-66.6634 -10.0032,-118.997 -30.0014,-157.164 -19.9982,-38.1666 -49.1701,-67.8345 -87.4993,-89.0038 -38.1666,-21.1612 -80.001,-31.6686 -125.17,-31.6686 -72.6653,0 -131.334,23.1699 -176.162,69.6725 -44.8354,46.4944 -67.1676,113.499 -67.1676,200.828zm89.996 -0.162653c0,-66.3381 14.5005,-116.004 43.5016,-148.836 29.1637,-33.0023 65.6631,-49.4954 109.832,-49.4954 43.6724,0 80.001,16.493 109.165,49.6662 29.0011,33.165 43.5016,83.6607 43.5016,151.495 0,64.004 -14.6632,112.499 -43.835,145.339 -29.1637,32.9942 -65.4923,49.4954 -108.831,49.4954 -44.1685,0 -80.6679,-16.3304 -109.832,-49.1619 -29.0011,-32.8397 -43.5016,-82.335 -43.5016,-148.502zm80.001 323.664l64.004 137.003 115.996 0 -107.001 -137.003 -72.9988 0z"
   id="glyph428" />
   <glyph
   unicode="ô"
   horiz-adv-x="556"
   d="M33.0023 259.497c0,95.8353 26.667,166.833 80.1636,213.002 44.5019,38.3374 98.9989,57.4979 163.166,57.4979 71.1689,0 129.504,-23.3326 174.836,-69.9978 45.1688,-46.5025 67.8345,-111.003 67.8345,-193.167 0,-66.6634 -10.0032,-118.997 -30.0014,-157.164 -19.9982,-38.1666 -49.1701,-67.8345 -87.4993,-89.0038 -38.1666,-21.1612 -80.001,-31.6686 -125.17,-31.6686 -72.6653,0 -131.334,23.1699 -176.162,69.6725 -44.8354,46.4944 -67.1676,113.499 -67.1676,200.828zm89.996 -0.162653c0,-66.3381 14.5005,-116.004 43.5016,-148.836 29.1637,-33.0023 65.6631,-49.4954 109.832,-49.4954 43.6724,0 80.001,16.493 109.165,49.6662 29.0011,33.165 43.5016,83.6607 43.5016,151.495 0,64.004 -14.6632,112.499 -43.835,145.339 -29.1637,32.9942 -65.4923,49.4954 -108.831,49.4954 -44.1685,0 -80.6679,-16.3304 -109.832,-49.1619 -29.0011,-32.8397 -43.5016,-82.335 -43.5016,-148.502zm153 406.666l-54.497 -83.0019 -99.9992 0 104.497 137.003 93.0051 0 111.499 -137.003 -99.9992 0 -54.5051 83.0019z"
   id="glyph430" />
   <glyph
   unicode="õ"
   horiz-adv-x="556"
   d="M33.0023 259.497c0,95.8353 26.667,166.833 80.1636,213.002 44.5019,38.3374 98.9989,57.4979 163.166,57.4979 71.1689,0 129.504,-23.3326 174.836,-69.9978 45.1688,-46.5025 67.8345,-111.003 67.8345,-193.167 0,-66.6634 -10.0032,-118.997 -30.0014,-157.164 -19.9982,-38.1666 -49.1701,-67.8345 -87.4993,-89.0038 -38.1666,-21.1612 -80.001,-31.6686 -125.17,-31.6686 -72.6653,0 -131.334,23.1699 -176.162,69.6725 -44.8354,46.4944 -67.1676,113.499 -67.1676,200.828zm89.996 -0.162653c0,-66.3381 14.5005,-116.004 43.5016,-148.836 29.1637,-33.0023 65.6631,-49.4954 109.832,-49.4954 43.6724,0 80.001,16.493 109.165,49.6662 29.0011,33.165 43.5016,83.6607 43.5016,151.495 0,64.004 -14.6632,112.499 -43.835,145.339 -29.1637,32.9942 -65.4923,49.4954 -108.831,49.4954 -44.1685,0 -80.6679,-16.3304 -109.832,-49.1619 -29.0011,-32.8397 -43.5016,-82.335 -43.5016,-148.502zm-7.00222 322.663c-0.333439,33.4984 9.00285,60.1654 27.8381,80.1718 18.5018,19.8274 42.3305,29.8306 71.3316,29.8306 20.169,0 47.6655,-8.49863 82.335,-25.6667 19.1687,-9.49895 34.4987,-14.3297 45.8357,-14.3297 10.4993,0 18.4937,2.83017 23.9995,8.49863 5.49768,5.49768 9.32816,16.8346 11.6622,33.4984l63.0037 0c-1.00032,-37.0036 -10.3366,-64.6709 -28.0007,-83.1646 -17.6641,-18.5018 -40.0046,-27.8381 -67.3384,-27.8381 -20.3316,0 -47.3321,9.16551 -80.6597,27.3339 -21.8362,11.833 -37.8331,17.6723 -48.0071,17.6723 -10.9954,0 -19.9982,-3.83862 -26.6589,-11.6704 -7.17301,-7.6691 -10.67,-19.1687 -10.3366,-34.3361l-65.0044 0z"
   id="glyph432" />
   <glyph
   unicode="ö"
   horiz-adv-x="556"
   d="M33.0023 259.497c0,95.8353 26.667,166.833 80.1636,213.002 44.5019,38.3374 98.9989,57.4979 163.166,57.4979 71.1689,0 129.504,-23.3326 174.836,-69.9978 45.1688,-46.5025 67.8345,-111.003 67.8345,-193.167 0,-66.6634 -10.0032,-118.997 -30.0014,-157.164 -19.9982,-38.1666 -49.1701,-67.8345 -87.4993,-89.0038 -38.1666,-21.1612 -80.001,-31.6686 -125.17,-31.6686 -72.6653,0 -131.334,23.1699 -176.162,69.6725 -44.8354,46.4944 -67.1676,113.499 -67.1676,200.828zm89.996 -0.162653c0,-66.3381 14.5005,-116.004 43.5016,-148.836 29.1637,-33.0023 65.6631,-49.4954 109.832,-49.4954 43.6724,0 80.001,16.493 109.165,49.6662 29.0011,33.165 43.5016,83.6607 43.5016,151.495 0,64.004 -14.6632,112.499 -43.835,145.339 -29.1637,32.9942 -65.4923,49.4954 -108.831,49.4954 -44.1685,0 -80.6679,-16.3304 -109.832,-49.1619 -29.0011,-32.8397 -43.5016,-82.335 -43.5016,-148.502zm24.9998 323.664l0 99.9992 92.0048 0 0 -99.9992 -92.0048 0zm182.001 0l0 99.9992 92.0048 0 0 -99.9992 -92.0048 0z"
   id="glyph434" />
   <glyph
   unicode="÷"
   horiz-adv-x="548"
   d="M223.998 449.996l0 100.007 99.9992 0 0 -100.007 -99.9992 0zm287.002 -137.995l-472.996 0 0 82.0016 472.996 0 0 -82.0016zm-287.002 -156.001l0 99.9992 99.9992 0 0 -99.9992 -99.9992 0z"
   id="glyph436" />
   <glyph
   unicode="ø"
   horiz-adv-x="610"
   d="M448.996 487.163l48.3405 62.6703 46.8279 -34.0027 -52.0002 -67.3303c20.3398,-28.0007 34.3361,-53.334 41.8344,-75.9997 10.0032,-32.4981 15.0048,-70.3312 15.0048,-113.499 0,-97.5025 -27.5047,-169.167 -82.6685,-215.003 -44.6646,-36.662 -98.5028,-55.0012 -161.336,-55.0012 -52.0002,0 -97.6651,13.0041 -137.499,39.0042l-50.9999 -66.0047 -45.9983 34.8403 52.6671 68.3306c-19.1687,21.9988 -32.6689,44.1685 -40.8341,66.33 -12.8333,35.3364 -19.3313,75.5036 -19.3313,120.502 0,97.8359 23.9995,168.671 71.8277,212.336 47.8363,43.835 104,65.6631 168.501,65.6631 26.667,0 51.3333,-3.49704 73.8364,-10.3285 22.4949,-6.83957 46.3318,-17.6723 71.8277,-32.5062zm-49.4954 -63.9959c-29.6679,22.5031 -60.8323,33.8319 -93.3304,33.8319 -43.3389,0 -79.8383,-16.5012 -109.173,-49.6662 -29.3345,-33.165 -43.9977,-82.6685 -43.9977,-148.169 0,-48.8285 8.49863,-89.6626 25.3332,-122.494l221.168 286.497zm36.4994 -47.1694l-219.663 -284.497c25.4959,-20.3316 54.1635,-30.4975 86.1655,-30.4975 45.3314,0 82.6604,16.493 112.166,49.6662 29.4972,33.165 44.3311,82.9938 44.3311,149.332 0,24.6664 -2.00063,46.1691 -5.83112,64.8336 -2.66751,13.5002 -8.33598,30.6683 -17.168,51.1626z"
   id="glyph438" />
   <glyph
   unicode="ù"
   horiz-adv-x="556"
   d="M404.998 0l0 77.1627c-40.3299,-58.8317 -94.9976,-88.1662 -164.166,-88.1662 -30.4975,0 -59.0024,5.83925 -85.4987,17.5015 -26.5043,11.833 -46.1691,26.5043 -59.0024,44.1685 -12.8333,17.8349 -21.8281,39.5003 -27.0004,65.167 -3.49704,17.3307 -5.32689,44.6646 -5.32689,82.0016l0 321.167 87.9954 0 0 -287.172c0,-45.8275 1.83798,-76.8292 5.33502,-92.6635 5.49768,-23.1699 17.168,-41.1675 35.1656,-54.3343 17.8349,-13.1668 39.8338,-19.8356 66.1673,-19.8356 26.3336,0 50.9999,6.66878 73.9991,20.169 22.9992,13.5002 39.3295,32.002 48.9993,55.172 9.49895,23.1618 14.3379,56.9937 14.3379,101.162l0 277.503 87.9954 0 0 -519.002 -79.0007 0zm-74.9994 582.998l-70.9981 0 -113.003 137.003 118.005 0 65.9965 -137.003z"
   id="glyph440" />
   <glyph
   unicode="ú"
   horiz-adv-x="556"
   d="M404.998 0l0 77.1627c-40.3299,-58.8317 -94.9976,-88.1662 -164.166,-88.1662 -30.4975,0 -59.0024,5.83925 -85.4987,17.5015 -26.5043,11.833 -46.1691,26.5043 -59.0024,44.1685 -12.8333,17.8349 -21.8281,39.5003 -27.0004,65.167 -3.49704,17.3307 -5.32689,44.6646 -5.32689,82.0016l0 321.167 87.9954 0 0 -287.172c0,-45.8275 1.83798,-76.8292 5.33502,-92.6635 5.49768,-23.1699 17.168,-41.1675 35.1656,-54.3343 17.8349,-13.1668 39.8338,-19.8356 66.1673,-19.8356 26.3336,0 50.9999,6.66878 73.9991,20.169 22.9992,13.5002 39.3295,32.002 48.9993,55.172 9.49895,23.1618 14.3379,56.9937 14.3379,101.162l0 277.503 87.9954 0 0 -519.002 -79.0007 0zm-189.995 582.998l63.9959 137.003 116.004 0 -107.001 -137.003 -72.9988 0z"
   id="glyph442" />
   <glyph
   unicode="û"
   horiz-adv-x="556"
   d="M404.998 0l0 77.1627c-40.3299,-58.8317 -94.9976,-88.1662 -164.166,-88.1662 -30.4975,0 -59.0024,5.83925 -85.4987,17.5015 -26.5043,11.833 -46.1691,26.5043 -59.0024,44.1685 -12.8333,17.8349 -21.8281,39.5003 -27.0004,65.167 -3.49704,17.3307 -5.32689,44.6646 -5.32689,82.0016l0 321.167 87.9954 0 0 -287.172c0,-45.8275 1.83798,-76.8292 5.33502,-92.6635 5.49768,-23.1699 17.168,-41.1675 35.1656,-54.3343 17.8349,-13.1668 39.8338,-19.8356 66.1673,-19.8356 26.3336,0 50.9999,6.66878 73.9991,20.169 22.9992,13.5002 39.3295,32.002 48.9993,55.172 9.49895,23.1618 14.3379,56.9937 14.3379,101.162l0 277.503 87.9954 0 0 -519.002 -79.0007 0zm-129 666l-54.497 -83.0019 -99.9992 0 104.497 137.003 93.0051 0 111.499 -137.003 -99.9992 0 -54.5051 83.0019z"
   id="glyph444" />
   <glyph
   unicode="ü"
   horiz-adv-x="556"
   d="M404.998 0l0 77.1627c-40.3299,-58.8317 -94.9976,-88.1662 -164.166,-88.1662 -30.4975,0 -59.0024,5.83925 -85.4987,17.5015 -26.5043,11.833 -46.1691,26.5043 -59.0024,44.1685 -12.8333,17.8349 -21.8281,39.5003 -27.0004,65.167 -3.49704,17.3307 -5.32689,44.6646 -5.32689,82.0016l0 321.167 87.9954 0 0 -287.172c0,-45.8275 1.83798,-76.8292 5.33502,-92.6635 5.49768,-23.1699 17.168,-41.1675 35.1656,-54.3343 17.8349,-13.1668 39.8338,-19.8356 66.1673,-19.8356 26.3336,0 50.9999,6.66878 73.9991,20.169 22.9992,13.5002 39.3295,32.002 48.9993,55.172 9.49895,23.1618 14.3379,56.9937 14.3379,101.162l0 277.503 87.9954 0 0 -519.002 -79.0007 0zm-269.996 582.998l0 99.9992 91.9966 0 0 -99.9992 -91.9966 0zm182.001 0l0 99.9992 91.9966 0 0 -99.9992 -91.9966 0z"
   id="glyph446" />
   <glyph
   unicode="ý"
   horiz-adv-x="499"
   d="M62.0034 -199.502l-10.0032 81.3347c19.3313,-5.16424 36.0033,-7.83175 50.333,-7.83175 19.6648,0 35.3364,3.33439 46.9986,9.83239 11.833,6.498 21.5028,15.6635 29.0011,27.3339 5.49768,8.83207 14.5005,30.6683 26.8296,65.6631 1.6672,4.83893 4.17205,12.0038 7.83988,21.5028l-197.006 520.669 94.0054 0 108.327 -299.672c14.1671,-37.8331 26.667,-77.8296 37.8413,-119.827 10.1658,39.5003 22.1615,78.4964 36.1659,116.834l110.661 302.665 87.8327 0 -196.16 -528.005c-21.1693,-56.831 -37.6705,-95.8271 -49.5035,-117.33 -15.6635,-28.8303 -33.6692,-49.9996 -53.8301,-63.4998 -20.3398,-13.5002 -44.5019,-20.169 -72.5027,-20.169 -16.9973,0 -36.0033,3.50518 -56.831,10.4993zm137.995 782.5l64.004 137.003 115.996 0 -107.001 -137.003 -72.9988 0z"
   id="glyph448" />
   <glyph
   unicode="þ"
   horiz-adv-x="556"
   d="M65.9965 -198.998l0 914.997 88.0035 0 0 -252.503c23.666,24.9998 44.5019,41.6717 62.4995,49.8369 23.3326,11.1661 49.9996,16.6638 80.001,16.6638 44.1685,0 83.1646,-11.3288 116.996,-34.1653 33.84,-22.6657 59.3359,-54.8304 76.6666,-96.1687 17.168,-41.4928 25.8375,-86.8324 25.8375,-136.328 0,-53.1713 -9.49895,-101 -28.505,-143.167 -18.9979,-42.3386 -46.6652,-74.666 -82.9938,-97.3317 -36.1659,-22.5031 -74.1699,-33.84 -113.833,-33.84 -27.0004,0 -52.171,5.33502 -75.1702,16.0051 -17.6641,8.49863 -37.9958,24.829 -61.4992,49.1619l0 -253.162 -88.0035 0zm79.6675 455.331c0,-66.5008 13.5002,-115.663 40.5006,-147.502 27.0004,-31.8312 59.6693,-47.8282 97.9986,-47.8282 39.0042,0 72.34,16.493 100.17,49.4954 27.83,33.0023 41.6636,84.0022 41.6636,153.171 0,65.9965 -13.5002,115.329 -40.6633,148.161 -27.1631,32.8397 -59.6693,49.1701 -97.3317,49.1701 -37.337,0 -70.3312,-17.5015 -99.1697,-52.3337 -28.8303,-35.003 -43.1682,-85.6694 -43.1682,-152.333z"
   id="glyph450" />
   <glyph
   unicode="ÿ"
   horiz-adv-x="499"
   d="M62.0034 -199.502l-10.0032 81.3347c19.3313,-5.16424 36.0033,-7.83175 50.333,-7.83175 19.6648,0 35.3364,3.33439 46.9986,9.83239 11.833,6.498 21.5028,15.6635 29.0011,27.3339 5.49768,8.83207 14.5005,30.6683 26.8296,65.6631 1.6672,4.83893 4.17205,12.0038 7.83988,21.5028l-197.006 520.669 94.0054 0 108.327 -299.672c14.1671,-37.8331 26.667,-77.8296 37.8413,-119.827 10.1658,39.5003 22.1615,78.4964 36.1659,116.834l110.661 302.665 87.8327 0 -196.16 -528.005c-21.1693,-56.831 -37.6705,-95.8271 -49.5035,-117.33 -15.6635,-28.8303 -33.6692,-49.9996 -53.8301,-63.4998 -20.3398,-13.5002 -44.5019,-20.169 -72.5027,-20.169 -16.9973,0 -36.0033,3.50518 -56.831,10.4993zm59.9946 782.5l0 99.9992 92.0048 0 0 -99.9992 -92.0048 0zm182.001 0l0 99.9992 92.0048 0 0 -99.9992 -92.0048 0z"
   id="glyph452" />
  </font>
</defs>
</svg>
